(Rock) Robby Valentine "The Magic Infinity" - 1993, FLAC (image + .cue), lossless

Статистика раздачи
Размер:  430.9 MB   |   Зарегистрирован:  10 лет 1 месяц   |   .torrent скачан:  609 раз
Сиды:  2   Личи:  1
Автор
Сообщение

Kazimir Almazov

Стаж: 10 лет 9 месяцев

Сообщений: 294

flag

Kazimir Almazov · 27-Май-08 08:09 (10 лет 3 месяца назад, ред. 21-Фев-11 14:31)

 

Robby Valentine "The Magic Infinity"
Страна: Королевство Нидерланды
Жанр: Rock
Год выпуска: 1993
Формат: FLAC (image + .cue)
Битрейт аудио: lossless
Продолжительность: 01:06:42
Трэклист:
01. The Magic Infinity [0:04:55.32]
02. Miss You Eternally [0:04:55.28]
03. Only Your Love [0:04:24.50]
04. Angel Of My Heart [0:04:23.22]
05. No Turning Back [0:04:23.63]
06. The Recinciliation [0:01:26.20]
07. Don't Make Me Wait Forever [0:04:12.17]
08. Wild Child [0:04:01.08]
09. I Need Your Love [0:04:49.70]
10. Help Me Spell My Name [0:04:00.07]
11. Mega-Man [0:06:23.68]
12. Raise Your Hands [0:03:56.40]
13. A World Of You And Me [0:03:02.32]
14. Valentine's Overture Part II (A Martian On Earth) [0:11:47.20]
Доп. информация: Коврики внутри.
Отчет EAC:
скрытый текст
Exact Audio Copy V0.99 prebeta 3 from 28. July 2007
Отчёт EAC об извлечении, выполненном 27. мая 2008, 0:53
Robby Valentine / The Magic Infinity
Дисковод: _NEC DVD_RW ND-3540A Adapter: 0 ID: 0
Режим чтения : Достоверность
Использование точного потока : Да
Отключение кэша аудио : Да
Использование указателей C2 : Нет
Коррекция смещения при чтении : 48
Способность читать области Lead-in и Lead-out : Нет
Заполнение пропущенных сэмплов тишиной : Да
Удаление блоков с тишиной в начале и конце : Нет
При вычислениях CRC использовались нулевые сэмплы : Нет
Интерфейс : Встроенный Win32-интерфейс для Win NT/2000
Выходной формат : Внутренние WAV-операции
Формат сэмплов : 44.100 Гц; 16 бит; стерео
Смещение при сжатии : 0
TOC извлечённого CD
Трек | Старт | Длительность | Начальный сектор | Конечный сектор
---------------------------------------------------------------------
1 | 0:00.00 | 4:55.32 | 0 | 22156
2 | 4:55.32 | 4:55.28 | 22157 | 44309
3 | 9:50.60 | 4:24.50 | 44310 | 64159
4 | 14:15.35 | 4:23.22 | 64160 | 83906
5 | 18:38.57 | 4:23.63 | 83907 | 103694
6 | 23:02.45 | 1:26.20 | 103695 | 110164
7 | 24:28.65 | 4:12.17 | 110165 | 129081
8 | 28:41.07 | 4:01.08 | 129082 | 147164
9 | 32:42.15 | 4:49.70 | 147165 | 168909
10 | 37:32.10 | 4:00.07 | 168910 | 186916
11 | 41:32.17 | 6:23.68 | 186917 | 215709
12 | 47:56.10 | 3:56.40 | 215710 | 233449
13 | 51:52.50 | 3:02.32 | 233450 | 247131
14 | 54:55.07 | 11:47.20 | 247132 | 300176
Характеристики диапазона извлечения и сообщения об ошибках
Выбранный диапазон
Имя файла J:\Valentine\Robby Valentine - The Magic Infinity.wav
Пиковый уровень 100.0 %
Качество диапазона 99.9 %
CRC копии 9C54700A
Копирование... OK
Ошибок не произошло
AccurateRip: сводка
Трек 1 нет в базе данных
Трек 2 нет в базе данных
Трек 3 нет в базе данных
Трек 4 нет в базе данных
Трек 5 нет в базе данных
Трек 6 нет в базе данных
Трек 7 нет в базе данных
Трек 8 нет в базе данных
Трек 9 нет в базе данных
Трек 10 нет в базе данных
Трек 11 нет в базе данных
Трек 12 нет в базе данных
Трек 13 нет в базе данных
Трек 14 нет в базе данных
Ни одного трека нет в базе AccurateRip
Конец отчёта
Другие альбомы:
1992 http://SKYTRACKER.XYZ/viewtopic.php?t=889909
1995 http://SKYTRACKER.XYZ/viewtopic.php?t=889937
1998 http://SKYTRACKER.XYZ/viewtopic.php?t=889959
2006 http://SKYTRACKER.XYZ/viewtopic.php?t=889983
Зарегистрирован:
  • 24-Авг-08 21:56
  • Скачан: 609 раз

Скачать .torrent

35 KB

Тип: обычная
Статус: проверено
Размер: 430.9 MB  ·  magnet525716A8B77307566F3097071CBDB4CE8B49E705
  • Свернуть поддиректории
  • Развернуть
  • Переключить
  • Увел./умен. окно
загружается...

alexskz

Стаж: 9 лет 10 месяцев

Сообщений: 29

flag

alexskz · 17-Ноя-09 14:00 (спустя 1 год 5 месяцев)

Спасибо, хорошая у них музыка. Этот альбом пока не слышал, но 1995-й - прямо "ночь в опере". Если бы на вокале был Фредди отличить от лучших альбомов Queen было бы тяжело.

painkiller_89

Top Seed 01* 40r

Стаж: 9 лет

Сообщений: 307

flag

painkiller_89 · 19-Ноя-09 08:25 (спустя 1 день 18 часов)

а меня сильнейшим образом зацепила Mega-Man

nik_196

Стаж: 9 лет 5 месяцев

Сообщений: 267

flag

nik_196 · 21-Янв-11 17:33 (спустя 1 год 2 месяца)

Скачал недавно и только сейчас прослушал это интерестное творение. Спасибо вам большое.
 
All rights reserved © 2017-2018
Loading...
Error