[ATV 2] Foreigner: Live In Chicago [2012, Hard Rock, Classic Rock, BDRip HD (1080p)]

Статистика раздачи
Размер:  10.09 GB   |   Зарегистрирован:  5 лет 11 месяцев   |   .torrent скачан:  898 раз

Полный источник: был вчера

Автор
Сообщение

alex7430354

Стаж: 8 лет 7 месяцев

Сообщений: 526

flag

alex7430354 · 09-Окт-12 19:14 (5 лет 11 месяцев назад, ред. 10-Окт-12 21:44)

 

Foreigner :Live In Chicago
Год выпуска: 2012
Страна: США
Жанр: Hard Rock, Classic Rock
Продолжительность: 1:18:42
Навигация:по трекам (с изображениями)
Описание: Foreigner Live In Chicago 2011 Show... The 80 minute DVD features the band's greatest hits in pristine high definition from their recent Chicago concert. It also features behind the scenes footage and bonus acoustic versions of some of the band's classic hits. The concert will air on PBS through August and into the fall as part of the Public Television Rocks! series.
Формат: MP4(контейнер m4v)Исходник:BDRemux 1080p
Видео:
Full HD: H.264, 1920 x 1080px , 29.970fps ~18000 kbps avg
Аудио: Английский (2.0 AAC-320kb/s)
Setlist:
01. Double Vision
02. Head Games
03. Cold As Ice
04. Waiting For A Girl Like You
05. Blue Morning, Blue Day
06. Dirty White Boy
07. When It Comes To Love
08. Starrider
09. Feels Like The First Time
10. Urgent
11. I Want To Know What Love Is
12. Hot Blooded
13. Juke Box Hero
Скриншоты Full HD
MediaInfo Full HD
Общее
Полное имя : W:\Convert\Forigner 1080p.m4v
Формат : MPEG-4
Профиль формата : Base Media / Version 2
Идентификатор кодека : mp42
Размер файла : 10,1 Гбайт
Продолжительность : 1 ч. 18 м.
Режим общего битрейта : Переменный
Общий поток : 18,4 Мбит/сек
Название фильма : Foreigner: Live In Chicago
Исполнитель : Foreigner
Жанр : Concert Films
Дата записи : UTC 2012-08-12 07:00:00
Дата кодирования : UTC 2012-09-03 10:11:27
Дата пометки : UTC 2012-10-09 14:49:05
Правообладатель : EAR
Обложка : Yes
desc : Foreigner Live In Chicago 2011 Show... The 80 minute DVD features the band's greatest hits in pristine high definition from their recent Chicago concert. It also features behind the scenes footage and bonus acoustic versions of some of the band's classic hits. The concert will air on PBS through August and into the fall as part of the Public Television Rocks! series.
ldes : Foreigner Live In Chicago 2011 Show... The 80 minute DVD features the band's greatest hits in pristine high definition from their recent Chicago concert. It also features behind the scenes footage and bonus acoustic versions of some of the band's classic hits. The concert will air on PBS through August and into the fall as part of the Public Television Rocks! series.
hdvd : 2
stik : 9
rtng : 0
cnID : 555565453
xid : Apple:vendor_id:2012-52875
iTunEXTC : mpaa|NR|000|
iTunMOVI : <?xml version="1.0" encoding="UTF-8"?> / <!DOCTYPE plist PUBLIC "-//Apple//DTD PLIST 1.0//EN" "http://www.apple.com/DTDs/PropertyList-1.0.dtd"> / <plist version="1.0"> / <dict> / <key>cast</key> / <array> / <dict> / <key>name</key> / <string>Foreigner</string> / </dict> / </array> / </dict> / </plist>
Видео #1
Идентификатор : 1
Формат : AVC
Формат/Информация : Advanced Video Codec
Профиль формата : High@L4.0
Параметр CABAC формата : Да
Параметр ReFrames формата : 4 кадра
Идентификатор кодека : avc1
Идентификатор кодека/Информация : Advanced Video Coding
Продолжительность : 1 ч. 18 м.
Вид битрейта : Переменный
Битрейт : 18,0 Мбит/сек
Ширина : 1920 пикселей
Высота : 1080 пикселей
Соотношение сторон : 16:9
Режим частоты кадров : Постоянный
Частота кадров : 29,970 кадров/сек
Цветовое пространство : YUV
Субдискретизация насыщенности : 4:2:0
Битовая глубина : 8 бит
Тип развёртки : Прогрессивная
Бит/(Пиксели*Кадры) : 0.290
Размер потока : 9,90 Гбайт (98%)
Библиотека кодирования : x264 core 120
Настройки программы : cabac=1 / ref=4 / deblock=1:1:0 / analyse=0x3:0x133 / me=umh / subme=10 / psy=1 / psy_rd=0.70:0.00 / mixed_ref=1 / me_range=32 / chroma_me=1 / trellis=2 / 8x8dct=1 / cqm=0 / deadzone=21,11 / fast_pskip=0 / chroma_qp_offset=-2 / threads=12 / sliced_threads=0 / nr=0 / decimate=0 / interlaced=0 / bluray_compat=0 / constrained_intra=0 / bframes=4 / b_pyramid=2 / b_adapt=2 / b_bias=0 / direct=3 / weightb=1 / open_gop=0 / weightp=2 / keyint=300 / keyint_min=30 / scenecut=40 / intra_refresh=0 / rc_lookahead=40 / rc=crf / mbtree=0 / crf=19.0 / qcomp=0.60 / qpmin=0 / qpmax=69 / qpstep=4 / vbv_maxrate=25000 / vbv_bufsize=25000 / crf_max=0.0 / nal_hrd=none / ip_ratio=1.40 / pb_ratio=1.30 / aq=1:1.00
Язык : English
Дата кодирования : UTC 2012-09-03 10:11:27
Дата пометки : UTC 2012-09-03 18:41:59
Основные цвета : BT.709
Характеристики трансфера : BT.709
Коэффициенты матрицы : BT.709
Видео #2
Идентификатор : 4
Формат : JPEG
Идентификатор кодека : jpeg
Продолжительность : 1 ч. 18 м.
Вид битрейта : Переменный
Битрейт : 1078 бит/сек
Ширина : 640 пикселей
Высота : 360 пикселей
Соотношение сторон : 16:9
Режим частоты кадров : Переменный
Частота кадров : 0,003 кадр/сек
Минимальная частота кадров : 0,002 кадр/сек
Максимальная частота кадров : 0,022 кадр/сек
Цветовое пространство : YUV
Субдискретизация насыщенности : 4:2:0
Битовая глубина : 8 бит
Метод сжатия : С потерями
Бит/(Пиксели*Кадры) : 1.560
Размер потока : 614 Кбайт (0%)
Язык : English
Дата кодирования : UTC 2012-10-09 14:14:38
Дата пометки : UTC 2012-10-09 14:14:39
Аудио
Идентификатор : 2
Формат : AAC
Формат/Информация : Advanced Audio Codec
Профиль формата : LC
Идентификатор кодека : 40
Продолжительность : 1 ч. 18 м.
Вид битрейта : Переменный
Битрейт : 336 Кбит/сек
Максимальный битрейт : 489 Кбит/сек
Каналы : 2 канала
Расположение каналов : Front: L R
Частота : 48,0 КГц
Метод сжатия : С потерями
Задержка видео : 67 мс.
Размер потока : 189 Мбайт (2%)
Язык : English
Дата кодирования : UTC 2012-10-09 14:03:45
Дата пометки : UTC 2012-10-09 14:04:00
Текст
Идентификатор : 3
Формат : Apple text
Идентификатор кодека : text
Продолжительность : 1 ч. 18 м.
Вид битрейта : Переменный
Битрейт : 1 бит/сек
Задержка видео : 67 мс.
Размер потока : 407 байт (0%)
Язык : English
Дата кодирования : UTC 2012-10-09 14:14:19
Дата пометки : UTC 2012-10-09 14:14:19
Меню
00:00:00.000 : Double Vision
00:03:59.973 : Head Games
00:09:35.975 : Cold As Ice
00:15:17.983 : Waiting For A Girl Like You
00:20:59.057 : Blue Morning, Blue Day
00:25:18.984 : Dirty White Boy
00:28:58.002 : When It Comes To Love
00:33:57.035 : Starrider
00:40:54.051 : Feels Like The First Time
00:45:42.005 : Urgent
00:53:15.992 : I Want To Know What Love Is
01:00:25.021 : Hot Blooded
01:07:04.954 : Juke Box Hero
x264Log Full HD
x264 [info]: frame I:1330 Avg QP:19.09 size:178956 PSNR Mean Y:46.04 U:49.34 V:49.60 Avg:46.89 Global:46.45
x264 [info]: frame P:39883 Avg QP:20.20 size:114043 PSNR Mean Y:44.62 U:48.06 V:48.47 Avg:45.50 Global:44.36
x264 [info]: frame B:100295 Avg QP:22.40 size: 58250 PSNR Mean Y:42.87 U:46.54 V:47.04 Avg:43.79 Global:42.65
x264 [info]: consecutive B-frames: 4.0% 5.2% 17.2% 41.1% 32.5%
x264 [info]: mb I I16..4: 21.7% 64.6% 13.6%
x264 [info]: mb P I16..4: 16.4% 38.5% 4.3% P16..4: 25.3% 10.8% 3.3% 0.3% 0.0% skip: 1.0%
x264 [info]: mb B I16..4: 7.4% 8.5% 0.9% B16..8: 35.1% 9.4% 2.1% direct:16.5% skip:20.2% L0:40.6% L1:42.1% BI:17.3%
x264 [info]: 8x8 transform intra:59.2% inter:68.4%
x264 [info]: direct mvs spatial:100.0% temporal:0.0%
x264 [info]: coded y,uvDC,uvAC intra: 70.2% 68.4% 33.7% inter: 40.4% 50.5% 14.5%
x264 [info]: i16 v,h,dc,p: 24% 18% 32% 26%
x264 [info]: i8 v,h,dc,ddl,ddr,vr,hd,vl,hu: 13% 13% 15% 7% 9% 11% 10% 10% 12%
x264 [info]: i4 v,h,dc,ddl,ddr,vr,hd,vl,hu: 11% 31% 11% 6% 8% 8% 9% 6% 11%
x264 [info]: i8c dc,h,v,p: 34% 31% 22% 12%
x264 [info]: Weighted P-Frames: Y:11.4% UV:9.8%
x264 [info]: ref P L0: 54.4% 11.9% 21.4% 10.3% 1.9% 0.1%
x264 [info]: ref B L0: 87.7% 9.7% 2.5%
x264 [info]: ref B L1: 93.1% 6.9%
x264 [info]: SSIM Mean Y:0.9799629 (16.982db)
x264 [info]: PSNR Mean Y:43.397 U:46.991 V:47.467 Avg:44.305 Global:43.093 kb/s:18007.90
iTunes MetaTag
XID: Apple:vendor_id:2012-52875
contentID: 555565453
Copyright: EAR
Cast: Foreigner
Rating: 1
Long Description: Foreigner Live In Chicago 2011 Show... The 80 minute DVD features the band's greatest hits in pristine high definition from their recent Chicago concert. It also features behind the scenes footage and bonus acoustic versions of some of the band's classic hits. The concert will air on PBS through August and into the fall as part of the Public Television Rocks! series.
Description: Foreigner Live In Chicago 2011 Show... The 80 minute DVD features the band's greatest hits in pristine high definition from their recent Chicago concert. It also features behind the scenes footage and bonus acoustic versions of some of the band's classic hits. The concert will air on PBS through August and into the fall as part of the Public Television Rocks! series.
Release Date: 2012-08-12T07:00:00Z
Genre: Concert Films
Artist: Foreigner
Name: Foreigner: Live In Chicago
Зарегистрирован:
  • 09-Окт-12 20:32
  • Скачан: 898 раз

Скачать .torrent

51 KB

Тип: обычная
Статус: проверено
Размер: 10.09 GB  ·  magnet932CB1942EF3DD946AC9FB6E18BC4B892044B2CA
  • Свернуть поддиректории
  • Развернуть
  • Переключить
  • Увел./умен. окно
загружается...

letni4

Стаж: 10 лет 8 месяцев

Сообщений: 133

flag

letni4 · 14-Апр-15 06:37 (спустя 2 года 6 месяцев, ред. 14-Апр-15 06:37)

Спасибо огромное!
Отличный , атмосферный концерт!

RobinHood_

Стаж: 9 лет 9 месяцев

Сообщений: 10

flag

RobinHood_ · 28-Ноя-15 21:29 (спустя 7 месяцев)

НЕПРАВИЛЬНАЯ ТРЕКЛИСТА!!!
5-ая песня должна быть When It Comes To Love и затем остальные!!!
ПРАВИЛЬНАЯ ТРЕКЛИСТА:
скрытый текст
01. Double Vision
02. Head Games
03. Cold As Ice
04. Waiting For A Girl Like You
05. When It Comes To Love
06. Blue Morning, Blue Day
07. Dirty White Boy
08. Starrider
09. Feels Like The First Time
10. Urgent
11. I Want To Know What Love Is
12. Hot Blooded
13. Juke Box Hero
 
All rights reserved © 2017-2018
Loading...
Error