[ATV3] Бавария – Путешествие мечты / Bavaria - Traumreise durch Bayern (Йозеф Вильсмайер / Joseph Vilsmaier ) [2012, Германия, документальный, BDRip, HD (1080p)] AVO + Original + sub (rus, eng forced)

Статистика раздачи
Размер:  10.28 GB   |   Зарегистрирован:  4 года 9 месяцев   |   .torrent скачан:  901 раз

Полный источник: был сегодня

Автор
Сообщение

pk5360114

Стаж: 9 лет 7 месяцев

Сообщений: 3916

flag

pk5360114 · 10-Дек-13 23:28 (4 года 9 месяцев назад, ред. 18-Дек-13 16:37)

 

Бавария – Путешествие мечты / Bavaria - Traumreise durch Bayern
-
8.000 / 10 6.80 / 10

Год выпуска: 2012
Страна: Германия
Жанр: документальный
Продолжительность: 01:33:00
Перевод:Профессиональный (одноголосый) - Алексеев М.
Оригинальная аудиодорожка: Есть
Субтитры: Русские, Английские форсированные
Режиссёр: Йозеф Вильсмайер
Сценарий: Hannes Burger, Йозеф Вильсмайер, Маркус Зиммер
Продюсер: Йозеф Вильсмайер, Маркус Зиммер
Оператор: Irmin Kerck, Гогол Лобмайр, Йозеф Вильсмайер
Композитор: Ганс-Юрген Бухнер
Монтаж: Manuel Reidinger, Ули Шён, Max Zandanel
В ролях: Йозеф Вильсмайер
Мировая премьера: 26 июля 2012
Описание: Это первая большая кино-документация про немецкое свободное государство Бавария.
Качество исходника: BDRemux
Качество: BDRip
Тип: HD (1080p)
Контейнер: M4V
Видео: H.264, 1920x816, 2.35:1, 14.5 Mbps, 23.976 fps
Аудио 1: Русский/Профессиональный (одноголосый) , AAC / 2.0 / 154 Kbps / 48.0 KHz
Аудио 2: Английский/Оригинальная дорожка , AAC / 2.0 / 154 Kbps / 48.0 KHz
Аудио 3: Русский/Профессиональный (одноголосый) , AC-3 / 5.1 / 640 Kbps / 48.0 KHz
Аудио 4: Английский/Оригинальная дорожка , AC-3 / 5.1 / 640 Kbps / 48.0 KHz
Субтитры 1: Русские полные
Субтитры 2: Английские форсированные


iTunes Meta Tags
Код:
Sort Name:  Bavaria - Traumreise durch Bayern
XID: Apple:vendor_id:2012-690742
contentID: 578229535
Screenwriters: Hannes Burger, Йозеф Вильсмайер, Маркус Зиммер
Producers: Йозеф Вильсмайер, Маркус Зиммер
Director: Йозеф Вильсмайер
Cast: Йозеф Вильсмайер
Rating: 0
Long Description: Это первая большая кино-документация про немецкое свободное государство Бавария.
Description: Это первая большая кино-документация про немецкое свободное государство Бавария.
Release Date: 2012-07-26T08:00:00Z
Genre: Documentary
Artist: Joseph Vilsmaier
Name: Bavaria - Traumreise durch Bayern
MediaInfo
Код:
General
Complete name                            : /Users/imac/HandBrake/Bavaria - Traumreise durch Bayern(1080p HD).m4v
Format                                   : MPEG-4
Codec ID                                 : M4V
File size                                : 10.3 GiB
Duration                                 : 1h 33mn
Overall bit rate mode                    : Variable
Overall bit rate                         : 15.8 Mbps
Movie name                               : Bavaria - Traumreise durch Bayern
Performer                                : Joseph Vilsmaier
Genre                                    : Documentary
Recorded date                            : UTC 2012-07-26 08:00:00
Encoded date                             : UTC 2013-12-10 19:40:40
Tagged date                              : UTC 2013-12-11 21:53:16
Cover                                    : Yes
sonm                                     :  Bavaria - Traumreise durch Bayern
desc                                     : Это первая большая кино-документация про немецкое свободное государство Бавария.
ldes                                     : Это первая большая кино-документация про немецкое свободное государство Бавария.
hdvd                                     : 2
stik                                     : 9
rtng                                     : 0
cnID                                     : 578229535
xid                                      : Apple:vendor_id:2012-690742
iTunEXTC                                 : mpaa|Unrated|???|
iTunMOVI                                 : <?xml version="1.0" encoding="UTF-8"?> / <!DOCTYPE plist PUBLIC "-//Apple//DTD PLIST 1.0//EN" "http://www.apple.com/DTDs/PropertyList-1.0.dtd"> / <plist version="1.0"> / <dict> /  <key>cast</key> /  <array> /   <dict> /    <key>name</key> /    <string>Йозеф Вильсмайер</string> /   </dict> /  </array> /  <key>directors</key> /  <array> /   <dict> /    <key>name</key> /    <string>Йозеф Вильсмайер</string> /   </dict> /  </array> /  <key>producers</key> /  <array> /   <dict> /    <key>name</key> /    <string>Йозеф Вильсмайер</string> /   </dict> /   <dict> /    <key>name</key> /    <string>Маркус Зиммер</string> /   </dict> /  </array> /  <key>screenwriters</key> /  <array> /   <dict> /    <key>name</key> /    <string>Hannes Burger</string> /   </dict> /   <dict> /    <key>name</key> /    <string>Йозеф Вильсмайер</string> /   </dict> /   <dict> /    <key>name</key> /    <string>Маркус Зиммер</string> /   </dict> /  </array> / </dict> / </plist>
Video #1
ID                                       : 1
Format                                   : AVC
Format/Info                              : Advanced Video Codec
Format profile                           : High@L4.0
Format settings, CABAC                   : Yes
Format settings, ReFrames                : 4 frames
Codec ID                                 : avc1
Codec ID/Info                            : Advanced Video Coding
Duration                                 : 1h 31mn
Bit rate mode                            : Variable
Bit rate                                 : 14.5 Mbps
Width                                    : 1 920 pixels
Height                                   : 816 pixels
Display aspect ratio                     : 2.35:1
Frame rate mode                          : Variable
Frame rate                               : 23.976 fps
Minimum frame rate                       : 23.810 fps
Maximum frame rate                       : 24.246 fps
Color space                              : YUV
Chroma subsampling                       : 4:2:0
Bit depth                                : 8 bits
Scan type                                : Progressive
Bits/(Pixel*Frame)                       : 0.386
Stream size                              : 9.24 GiB (90%)
Writing library                          : x264 core 130 r2273 b3065e6
Encoding settings                        : cabac=1 / ref=4 / deblock=1:0:0 / analyse=0x3:0x133 / me=umh / subme=10 / psy=1 / psy_rd=1.00:0.00 / mixed_ref=1 / me_range=32 / chroma_me=1 / trellis=2 / 8x8dct=1 / cqm=0 / deadzone=21,11 / fast_pskip=1 / chroma_qp_offset=-2 / threads=12 / lookahead_threads=1 / sliced_threads=0 / nr=0 / decimate=1 / interlaced=0 / bluray_compat=0 / constrained_intra=0 / bframes=4 / b_pyramid=2 / b_adapt=2 / b_bias=0 / direct=3 / weightb=1 / open_gop=0 / weightp=2 / keyint=240 / keyint_min=24 / scenecut=40 / intra_refresh=0 / rc_lookahead=40 / rc=2pass / mbtree=0 / bitrate=14500 / ratetol=1.0 / qcomp=0.60 / qpmin=0 / qpmax=69 / qpstep=4 / cplxblur=20.0 / qblur=0.5 / vbv_maxrate=25000 / vbv_bufsize=25000 / nal_hrd=none / ip_ratio=1.40 / pb_ratio=1.30 / aq=1:1.00
Language                                 : English
Encoded date                             : UTC 2013-12-10 19:40:40
Tagged date                              : UTC 2013-12-10 19:44:24
Color primaries                          : BT.709-5, BT.1361, IEC 61966-2-4, SMPTE RP177
Transfer characteristics                 : BT.709-5, BT.1361
Matrix coefficients                      : BT.709-5, BT.1361, IEC 61966-2-4 709, SMPTE RP177
Video #2
ID                                       : 8
Format                                   : JPEG
Codec ID                                 : jpeg
Duration                                 : 1h 31mn
Bit rate mode                            : Variable
Bit rate                                 : 1 417 bps
Width                                    : 640 pixels
Height                                   : 272 pixels
Display aspect ratio                     : 2.35:1
Frame rate mode                          : Variable
Frame rate                               : 0.003 fps
Minimum frame rate                       : 0.001 fps
Maximum frame rate                       : 0.008 fps
Color space                              : YUV
Chroma subsampling                       : 4:2:0
Bit depth                                : 8 bits
Compression mode                         : Lossy
Bits/(Pixel*Frame)                       : 2.713
Stream size                              : 922 KiB (0%)
Language                                 : English
Encoded date                             : UTC 2013-12-10 19:40:40
Tagged date                              : UTC 2013-12-10 19:43:55
Audio #1
ID                                       : 2
Format                                   : AAC
Format/Info                              : Advanced Audio Codec
Format profile                           : LC
Codec ID                                 : 40
Duration                                 : 1h 33mn
Bit rate mode                            : Variable
Bit rate                                 : 154 Kbps
Maximum bit rate                         : 281 Kbps
Channel(s)                               : 2 channels
Channel positions                        : Front: L R
Sampling rate                            : 48.0 KHz
Compression mode                         : Lossy
Stream size                              : 103 MiB (1%)
Language                                 : Russian
Encoded date                             : UTC 2013-12-10 19:40:40
Tagged date                              : UTC 2013-12-10 19:44:25
Audio #2
ID                                       : 3
Format                                   : AAC
Format/Info                              : Advanced Audio Codec
Format profile                           : LC
Codec ID                                 : 40
Duration                                 : 1h 33mn
Bit rate mode                            : Variable
Bit rate                                 : 154 Kbps
Maximum bit rate                         : 265 Kbps
Channel(s)                               : 2 channels
Channel positions                        : Front: L R
Sampling rate                            : 48.0 KHz
Compression mode                         : Lossy
Stream size                              : 103 MiB (1%)
Language                                 : English
Encoded date                             : UTC 2013-12-10 19:40:40
Tagged date                              : UTC 2013-12-10 19:44:25
Audio #3
ID                                       : 4
Format                                   : AC-3
Format/Info                              : Audio Coding 3
Mode extension                           : CM (complete main)
Format settings, Endianness              : Big
Codec ID                                 : ac-3
Duration                                 : 1h 33mn
Bit rate mode                            : Constant
Bit rate                                 : 640 Kbps
Channel(s)                               : 6 channels
Channel positions                        : Front: L C R, Side: L R, LFE
Sampling rate                            : 48.0 KHz
Bit depth                                : 16 bits
Compression mode                         : Lossy
Stream size                              : 427 MiB (4%)
Language                                 : Russian
Encoded date                             : UTC 2013-12-10 19:40:40
Tagged date                              : UTC 2013-12-10 19:44:25
Audio #4
ID                                       : 5
Format                                   : AC-3
Format/Info                              : Audio Coding 3
Mode extension                           : CM (complete main)
Format settings, Endianness              : Big
Codec ID                                 : ac-3
Duration                                 : 1h 33mn
Bit rate mode                            : Constant
Bit rate                                 : 640 Kbps
Channel(s)                               : 6 channels
Channel positions                        : Front: L C R, Side: L R, LFE
Sampling rate                            : 48.0 KHz
Bit depth                                : 16 bits
Compression mode                         : Lossy
Stream size                              : 427 MiB (4%)
Language                                 : English
Encoded date                             : UTC 2013-12-10 19:40:40
Tagged date                              : UTC 2013-12-10 19:40:43
Text #1
ID                                       : 6
Format                                   : Timed text
Muxing mode                              : sbtl
Codec ID                                 : tx3g
Duration                                 : 1h 27mn
Bit rate mode                            : Variable
Bit rate                                 : 64 bps
Stream size                              : 40.9 KiB (0%)
Language                                 : Russian
Encoded date                             : UTC 2013-12-10 19:40:40
Tagged date                              : UTC 2013-12-10 19:44:18
Text #2
ID                                       : 7
Format                                   : Timed text
Muxing mode                              : sbtl
Codec ID                                 : tx3g
Duration                                 : 1h 27mn
Bit rate mode                            : Variable
Bit rate                                 : 11 bps
Stream size                              : 6.92 KiB (0%)
Language                                 : English
Encoded date                             : UTC 2013-12-10 19:40:40
Tagged date                              : UTC 2013-12-10 19:44:14
Text #3
ID                                       : 9
Format                                   : Apple text
Codec ID                                 : text
Duration                                 : 1h 31mn
Bit rate mode                            : Variable
Bit rate                                 : 1 bps
Stream size                              : 375 Bytes (0%)
Language                                 : English
Encoded date                             : UTC 2013-12-10 19:44:25
Tagged date                              : UTC 2013-12-10 19:44:25
Menu
00:00:00.000                             : Chapter 1
00:08:04.734                             : Chapter 2
00:15:31.931                             : Chapter 3
00:22:11.621                             : Chapter 4
00:25:02.625                             : Chapter 5
00:29:46.116                             : Chapter 6
00:34:32.944                             : Chapter 7
00:47:15.247                             : Chapter 8
00:49:25.919                             : Chapter 9
00:53:16.608                             : Chapter 10
00:56:36.641                             : Chapter 11
01:03:03.611                             : Chapter 12
01:10:49.910                             : Chapter 13
01:18:21.361                             : Chapter 14
01:23:20.118                             : Chapter 15
01:28:00.648                             : Chapter 16
x264 лог
Код:
x264 [info]: frame I:1222  Avg QP:18.05  size:299592  PSNR Mean Y:45.68 U:47.92 V:48.36 Avg:46.30 Global:44.93
x264 [info]: frame P:36644 Avg QP:19.79  size:121903  PSNR Mean Y:42.82 U:46.50 V:47.08 Avg:43.74 Global:42.20
x264 [info]: frame B:93894 Avg QP:22.53  size: 54155  PSNR Mean Y:40.68 U:45.25 V:45.96 Avg:41.74 Global:40.59
x264 [info]: consecutive B-frames:  4.2%  7.1% 12.2% 33.1% 43.5%
x264 [info]: mb I  I16..4: 10.7% 48.8% 40.4%
x264 [info]: mb P  I16..4:  2.1% 13.0%  1.9%  P16..4: 33.7% 24.9% 16.3%  1.4%  0.4%    skip: 6.2%
x264 [info]: mb B  I16..4:  0.5%  1.6%  0.2%  B16..8: 46.7% 14.1%  4.3%  direct:15.0%  skip:17.7%  L0:37.2% L1:38.8% BI:24.0%
x264 [info]: 8x8 transform intra:71.7% inter:47.2%
x264 [info]: direct mvs  spatial:91.4% temporal:8.6%
x264 [info]: coded y,uvDC,uvAC intra: 87.1% 77.8% 54.2% inter: 53.4% 32.9% 8.1%
x264 [info]: i16 v,h,dc,p: 35% 25% 25% 16%
x264 [info]: i8 v,h,dc,ddl,ddr,vr,hd,vl,hu:  8% 11% 13%  9% 12% 10% 12% 10% 13%
x264 [info]: i4 v,h,dc,ddl,ddr,vr,hd,vl,hu: 11% 15% 13%  7% 11%  9% 12%  8% 14%
x264 [info]: i8c dc,h,v,p: 46% 25% 17% 12%
x264 [info]: Weighted P-Frames: Y:5.3% UV:3.1%
x264 [info]: ref P L0: 53.3% 15.9% 23.3%  6.6%  0.9%  0.0%
x264 [info]: ref B L0: 89.6%  8.9%  1.6%
x264 [info]: ref B L1: 94.6%  5.4%
x264 [info]: SSIM Mean Y:0.9744545 (15.927db)
x264 [info]: PSNR Mean Y:41.325 U:45.620 V:46.294 Avg:42.342 Global:41.008 kb/s:14438.01
Скриншоты



Релиз подготовлен для просмотра на Apple TV, iPad, iPhone, iPod Touch.
Для просмотра данного релиза на компьютере с ОС Windows рекомендуется использовать VLC media player
Зарегистрирован:
  • 12-Дек-13 01:09
  • Скачан: 901 раз

Скачать .torrent

103 KB

Тип: обычная
Статус: проверено
Размер: 10.28 GB  ·  magnet0EEDB81E872910F7A77812EE4C6415EB73741587
  • Свернуть поддиректории
  • Развернуть
  • Переключить
  • Увел./умен. окно
загружается...

yv_apple

Moderator

Стаж: 8 лет 3 месяца

Сообщений: 5543

flag

yv_apple · 11-Дек-13 11:03 (спустя 11 часов)

pk5360114
За релиз спасибо, но... фильм то в тунце есть
http://dev.kino4apple.ru/film-view.html?film=690742

pk5360114

Стаж: 9 лет 7 месяцев

Сообщений: 3916

flag

pk5360114 · 11-Дек-13 11:34 (спустя 30 мин.)

Внимание!
NAS с которого раздавался релиз вышел из строя. Потребуется время на восстановление.
Приношу извинения за неудобства.

yv_apple

Moderator

Стаж: 8 лет 3 месяца

Сообщений: 5543

flag

yv_apple · 11-Дек-13 12:05 (спустя 31 мин.)

pk5360114
Пока закрыл раздачу.

pk5360114

Стаж: 9 лет 7 месяцев

Сообщений: 3916

flag

pk5360114 · 12-Дек-13 01:14 (спустя 13 часов, ред. 12-Дек-13 01:14)

yv_apple
Железо починил, тэги исправил, MI заменил, прошу открыть раздачу.

yv_apple

Moderator

Стаж: 8 лет 3 месяца

Сообщений: 5543

flag

yv_apple · 12-Дек-13 09:38 (спустя 8 часов)

pk5360114
А зачем unrated ставили? Есть не немецкий рейтинг.
Учтите это на будущее.

Веселый Молодчик

RG Apple

Стаж: 6 лет 1 месяц

Сообщений: 594

flag

Веселый Молодчик · 15-Дек-13 08:50 (спустя 2 дня 23 часа)

pk5360114 писал(а):
62069960Перевод: Профессиональный (дублированный)
Это не дубляж а одноголосый перевод
http://SKYTRACKER.XYZ/viewtopic.php?t=4608998
А на кинозале вечно ересь пишут

pk5360114

Стаж: 9 лет 7 месяцев

Сообщений: 3916

flag

pk5360114 · 18-Дек-13 16:38 (спустя 3 дня)

Веселый Молодчик
Исправил.

Huz

Стаж: 12 лет 1 месяц

Сообщений: 204

flag

Huz · 03-Янв-16 00:21 (спустя 2 года)

Скажите пожалуйста, это отдельная картина, или серия?
.
 
All rights reserved © 2017-2018
Loading...
Error