(Melodic Rock/AOR) [CD] Metropolis - The Power Of The Night - 1999 (2000 Japan), FLAC (image+.cue), lossless

Статистика раздачи
Размер:  403.5 MB   |   Зарегистрирован:  1 год 10 месяцев   |   .torrent скачан:  285 раз
Сиды:  2
Автор
Сообщение

crossovernickk

Стаж: 7 лет 11 месяцев

Сообщений: 2862

flag

crossovernickk · 06-Ноя-16 14:22 (1 год 10 месяцев назад, ред. 06-Ноя-16 14:24)

 

Metropolis ~ The Power Of The Night
Жанр: Melodic Rock/AOR
Носитель: CD
Страна-производитель диска (релиза): Japan
Год издания: 1999 (2000)
Издатель (лейбл): Nippon Crown Co.Ltd.
Номер по каталогу: CRCL-4523
Страна исполнителя (группы): Canada
Аудиокодек: FLAC (*.flac)
Тип рипа: image+.cue
Битрейт аудио: lossless
Продолжительность: 53:00
Источник (релизер): alzal
Наличие сканов в содержимом раздачи: да
Треклист:
01. Wild And Blue (4:07)
02. The Darkest Side Of The Night (4:56)
03. Never Look Back (3:44)
04. Walk Through The Fire (3:56)
05. Restless Moon (5:08)
06. A Million Miles Away (4:33)
07. Whatever It Is (4:00)
08. The Eyes Of Love (5:13)
09. The Best Is Good Enough (4:34)
10. Running After A Dream (3:38)
11. The Power Of The Night (5:17)
12. Love And Desire [Japanese Bonus Track] (3:56)

Лог создания рипа
Exact Audio Copy V1.1 from 23. June 2015
Отчёт EAC об извлечении, выполненном 24. ноября 2015, 20:25
Metropolis / The Power Of The Night
Дисковод: PLEXTOR BD-R PX-B950SA Adapter: 1 ID: 0
Режим чтения : Достоверность
Использование точного потока : Да
Отключение кэша аудио : Да
Использование указателей C2 : Нет
Коррекция смещения при чтении : 6
Способность читать области Lead-in и Lead-out : Нет
Заполнение пропущенных сэмплов тишиной : Да
Удаление блоков с тишиной в начале и конце : Нет
При вычислениях CRC использовались нулевые сэмплы : Да
Интерфейс : Встроенный Win32-интерфейс для Win NT/2000
Выходной формат : Пользовательский кодировщик
Выбранный битрейт : 1024 kBit/s
Качество : Высокий
Добавление ID3-тега : Нет
Утилита сжатия : C:\Program Files (x86)\Exact Audio Copy\FLAC\FLAC.EXE
Дополнительные параметры : -6 -V -T "ARTIST=%artist%" -T "TITLE=%title%" -T "ALBUM=%albumtitle%" -T "DATE=%year%" -T "TRACKNUMBER=%tracknr%" -T "GENRE=%genre%" -T "COMMENT=%comment%" -T "BAND=%albuminterpret%" -T "ALBUMARTIST=%albuminterpret%" -T "COMPOSER=%composer%" %haslyrics%--tag-from-file=LYRICS="%lyricsfile%"%haslyrics% -T "DISCNUMBER=%cdnumber%" -T "TOTALDISCS=%totalcds%" -T "TOTALTRACKS=%numtracks%" %hascover%--picture="%coverfile%"%hascover% %source% -o %dest%
TOC извлечённого CD
Трек | Старт | Длительность | Начальный сектор | Конечный сектор
---------------------------------------------------------------------
1 | 0:00.00 | 4:06.52 | 0 | 18501
2 | 4:06.52 | 4:55.58 | 18502 | 40684
3 | 9:02.35 | 3:43.40 | 40685 | 57449
4 | 12:46.00 | 3:56.05 | 57450 | 75154
5 | 16:42.05 | 5:07.67 | 75155 | 98246
6 | 21:49.72 | 4:33.25 | 98247 | 118746
7 | 26:23.22 | 4:00.13 | 118747 | 136759
8 | 30:23.35 | 5:12.50 | 136760 | 160209
9 | 35:36.10 | 4:33.55 | 160210 | 180739
10 | 40:09.65 | 3:37.52 | 180740 | 197066
11 | 43:47.42 | 5:17.03 | 197067 | 220844
12 | 49:04.45 | 3:55.52 | 220845 | 238521
Характеристики диапазона извлечения и сообщения об ошибках
Выбранный диапазон
Имя файла G:\RIP\Metropolis 2000 Japanese Pressing FLAC by alzal\Metropolis - The Power Of The Night.wav
Пиковый уровень 99.8 %
Скорость извлечения 8.5 X
Качество диапазона 100.0 %
CRC теста 2FDC683D
CRC копии 2FDC683D
Копирование... OK
Ошибок не произошло
AccurateRip: сводка
Трек 1 : извлечено точно (доверие 2) [3102ADE1] (AR v2)
Трек 2 : извлечено точно (доверие 2) [DEC089DA] (AR v2)
Трек 3 : извлечено точно (доверие 2) [91D67D18] (AR v2)
Трек 4 : извлечено точно (доверие 2) [4B644867] (AR v2)
Трек 5 : извлечено точно (доверие 2) [749154A5] (AR v2)
Трек 6 : извлечено точно (доверие 2) [C2A01AE0] (AR v2)
Трек 7 : извлечено точно (доверие 2) [155CA1ED] (AR v2)
Трек 8 : извлечено точно (доверие 2) [A1999B88] (AR v2)
Трек 9 : извлечено точно (доверие 2) [26068AB8] (AR v2)
Трек 10 : извлечено точно (доверие 2) [CF75F8BD] (AR v2)
Трек 11 : извлечено точно (доверие 2) [EC44A75E] (AR v2)
Трек 12 : извлечено точно (доверие 2) [507CCFB5] (AR v2)
Все треки извлечены точно
Конец отчёта
---- CUETools DB Plugin V2.1.6
[CTDB TOCID: eSIr7.MTHW3GY86bOv7_oqDrs2g-] found
Submit result: already submitted
Track | CTDB Status
1 | (4/4) Accurately ripped
2 | (2/4) Accurately ripped
3 | (4/4) Accurately ripped
4 | (4/4) Accurately ripped
5 | (4/4) Accurately ripped
6 | (4/4) Accurately ripped
7 | (4/4) Accurately ripped
8 | (4/4) Accurately ripped
9 | (4/4) Accurately ripped
10 | (4/4) Accurately ripped
11 | (4/4) Accurately ripped
12 | (4/4) Accurately ripped
Лог проверки качества
-----------------------
DON'T MODIFY THIS FILE
-----------------------
PERFORMER: auCDtect Task Manager, ver. 1.6.0 RC1 build 1.6.0.1
Copyright (c) 2008-2010 y-soft. All rights reserved
http://y-soft.org
ANALYZER: auCDtect: CD records authenticity detector, version 0.8.2
Copyright (c) 2004 Oleg Berngardt. All rights reserved.
Copyright (c) 2004 Alexander Djourik. All rights reserved.
FILE: Metropolis - The Power Of The Night.flac
Size: 391557817 Hash: FFA8765AFC8BAE490B127FC24559016C Accuracy: -m0
Conclusion: CDDA 100%
Signature: 8521BD083214B735CCCD63AF63B497B1D6A0B385
Лог DRM
foobar2000 1.2.9 / Dynamic Range Meter 1.1.1
log date: 2016-11-06 13:12:52
--------------------------------------------------------------------------------
Analyzed: Metropolis / The Power Of The Night
--------------------------------------------------------------------------------
DR Peak RMS Duration Track
--------------------------------------------------------------------------------
DR8 -0.01 dB -9.75 dB 4:07 01-Wild And Blue
DR6 -0.40 dB -7.90 dB 4:56 02-The Darkest Side Of The Night
DR6 -0.61 dB -8.31 dB 3:44 03-Never Look Back
DR7 -0.01 dB -8.47 dB 3:56 04-Walk Through The Fire
DR9 -0.01 dB -10.82 dB 5:08 05-Restless Moon
DR10 -0.01 dB -10.81 dB 4:33 06-A Million Miles Away
DR8 -0.14 dB -9.21 dB 4:00 07-Whatever It Is
DR7 -0.01 dB -9.60 dB 5:13 08-The Eyes Of Love
DR6 -0.31 dB -7.32 dB 4:34 09-The Best Is Good Enough
DR7 -0.01 dB -8.27 dB 3:38 10-Running After A Dream
DR7 -0.01 dB -10.51 dB 5:17 11-The Power Of The Night
DR8 -0.01 dB -10.03 dB 3:56 12-Love And Desire
--------------------------------------------------------------------------------
Number of tracks: 12
Official DR value: DR7
Samplerate: 44100 Hz
Channels: 2
Bits per sample: 16
Bitrate: 985 kbps
Codec: FLAC
================================================================================
Состав
Peter Fredette - Vocals, Bass
Stan Meissner - Guitars, Keyboards, Drums
Зарегистрирован:
  • 06-Ноя-16 14:22
  • Скачан: 285 раз

Скачать .torrent

18 KB

Тип: обычная
Статус: проверено
Размер: 403.5 MB  ·  magnetC6AB14F71F85429D7E57039F2860D7E5295669CF
  • Свернуть поддиректории
  • Развернуть
  • Переключить
  • Увел./умен. окно
загружается...
 
All rights reserved © 2017-2018
Loading...
Error