(Melodic Hard Rock / AOR) [CD] Arcara - Discography - 2 Albums - 1995-1997, FLAC (image+.cue), lossless

Статистика раздачи
Размер:  776.1 MB   |   Зарегистрирован:  1 год 10 месяцев   |   .torrent скачан:  221 раз
Сиды:  1
Автор
Сообщение

crossovernickk

Стаж: 7 лет 11 месяцев

Сообщений: 2862

flag

crossovernickk · 10-Ноя-16 22:12 (1 год 10 месяцев назад, ред. 11-Ноя-16 23:35)

 

Arcara ~ Discography /2 Albums/

Жанр: Melodic Hard Rock / AOR
Носитель: CD
Тип: Album
Страна-производитель диска (релиза): UK
Год издания: 1995-1997
Издатель (лейбл): Escape
Номер по каталогу: ESM010 и ESM020
Страна исполнителя (группы): USA
Аудиокодек: FLAC (*.flac)
Тип рипа: image+.cue
Битрейт аудио: lossless
Продолжительность: 01:48:39
Источник (релизер): kikel
Наличие сканов в содержимом раздачи: да
[1995] Arcara - 52:32
Треклист:
01. Wine And Roses (4:40)
02. All That I Need (4:25)
03. In Your Face (3:07)
04. Hang On (4:03)
05. Won't You (4:37)
06. Marie (4:06)
07. Rock My Soul (3:56)
08. Shake Me, Shake Me (3:43)
09. Wait For Your Love (6:02)
10. Why Me (4:50)
11. My Turn (4:41)
12. Love's Decay (4:23)
Лог создания рипа
Exact Audio Copy V1.0 beta 4 from 7. December 2014
EAC extraction logfile from 29. July 2016, 18:04
Arcara / Arcara
Used drive : HL-DT-STDVDRAM GU40N Adapter: 0 ID: 1
Read mode : Secure
Utilize accurate stream : Yes
Defeat audio cache : Yes
Make use of C2 pointers : No
Read offset correction : 103
Overread into Lead-In and Lead-Out : No
Fill up missing offset samples with silence : Yes
Delete leading and trailing silent blocks : No
Null samples used in CRC calculations : Yes
Used interface : Installed external ASPI interface
Used output format : User Defined Encoder
Selected bitrate : 1024 kBit/s
Quality : High
Add ID3 tag : No
Command line compressor : C:\Program Files (x86)\AudioConverter\AudioConverter.exe
Additional command line options : FLAC
TOC of the extracted CD
Track | Start | Length | Start sector | End sector
---------------------------------------------------------
1 | 0:00.00 | 4:40.02 | 0 | 21001
2 | 4:40.02 | 4:24.40 | 21002 | 40841
3 | 9:04.42 | 3:06.38 | 40842 | 54829
4 | 12:11.05 | 4:02.60 | 54830 | 73039
5 | 16:13.65 | 4:37.12 | 73040 | 93826
6 | 20:51.02 | 4:05.43 | 93827 | 112244
7 | 24:56.45 | 3:55.57 | 112245 | 129926
8 | 28:52.27 | 3:43.10 | 129927 | 146661
9 | 32:35.37 | 6:01.63 | 146662 | 173799
10 | 38:37.25 | 4:50.37 | 173800 | 195586
11 | 43:27.62 | 4:41.08 | 195587 | 216669
12 | 48:08.70 | 4:23.35 | 216670 | 236429
Range status and errors
Selected range
Filename C:\Users\workutagin\Desktop\Arcara - Arcara 1995\Arcara - Arcara.wav
Peak level 93.7 %
Extraction speed 2.0 X
Range quality 100.0 %
Test CRC AA7918E0
Copy CRC AA7918E0
Copy OK
No errors occurred
AccurateRip summary
Track 1 accurately ripped (confidence 13) [8F306779] (AR v2)
Track 2 accurately ripped (confidence 12) [38260552] (AR v2)
Track 3 accurately ripped (confidence 13) [5758C049] (AR v2)
Track 4 accurately ripped (confidence 13) [F8101F95] (AR v2)
Track 5 accurately ripped (confidence 13) [17CB72E4] (AR v2)
Track 6 accurately ripped (confidence 13) [6AE91AFE] (AR v2)
Track 7 accurately ripped (confidence 13) [62F7FC95] (AR v2)
Track 8 accurately ripped (confidence 13) [1370F397] (AR v2)
Track 9 accurately ripped (confidence 13) [73096F60] (AR v2)
Track 10 accurately ripped (confidence 13) [9822F804] (AR v2)
Track 11 accurately ripped (confidence 13) [95933C74] (AR v2)
Track 12 accurately ripped (confidence 13) [27D9154F] (AR v2)
All tracks accurately ripped
End of status report
==== Log checksum AC2DFA71D56F04725498A2E6B0E743E39E21A1A5EBD5993D3202669C88B6FE91 ====
Лог проверки качества
Сильно не пугайтесь, увидев MPEG, такое ощущение производитель просто напрочь обрезал верхние частоты на ~ на 18 кГц; для чего и почему это было сделано, остается только догадываться. В папке Tech приведены логи и спектрограммы 2х программ.
Отступление: в подлинности происхождения страны-производителя диска сомневаться не приходится.
[1997] A Matter Of Time - 56:52
Треклист:
01. Gunshy (5:37)
02. Lost in Time (4:38)
03. Eternal Affair (5:33)
04. Never Tell Your Dreams Goodbye (5:04)
05. Walk Away (3:51)
06. Fight Ain't Over (3:34)
07. A Matter of Time (4:10)
08. Blonde and Blue (5:07)
09. Far Cry From You (4:52)
10. Let It Ride (5:11)
11. Love in the First Degree (3:55)
12. Believer (5:21)
Лог создания рипа
Exact Audio Copy V1.0 beta 4 from 7. December 2014
EAC extraction logfile from 29. July 2016, 19:08
Arcara / A Matter Of Time
Used drive : HL-DT-STDVDRAM GU40N Adapter: 0 ID: 1
Read mode : Secure
Utilize accurate stream : Yes
Defeat audio cache : Yes
Make use of C2 pointers : No
Read offset correction : 103
Overread into Lead-In and Lead-Out : No
Fill up missing offset samples with silence : Yes
Delete leading and trailing silent blocks : No
Null samples used in CRC calculations : Yes
Used interface : Installed external ASPI interface
Used output format : User Defined Encoder
Selected bitrate : 1024 kBit/s
Quality : High
Add ID3 tag : No
Command line compressor : C:\Program Files (x86)\AudioConverter\AudioConverter.exe
Additional command line options : FLAC
TOC of the extracted CD
Track | Start | Length | Start sector | End sector
---------------------------------------------------------
1 | 0:00.00 | 5:37.12 | 0 | 25286
2 | 5:37.12 | 4:37.68 | 25287 | 46129
3 | 10:15.05 | 5:32.72 | 46130 | 71101
4 | 15:48.02 | 5:03.52 | 71102 | 93878
5 | 20:51.54 | 3:50.58 | 93879 | 111186
6 | 24:42.37 | 3:33.50 | 111187 | 127211
7 | 28:16.12 | 4:10.03 | 127212 | 145964
8 | 32:26.15 | 5:06.55 | 145965 | 168969
9 | 37:32.70 | 4:51.70 | 168970 | 190864
10 | 42:24.65 | 5:11.10 | 190865 | 214199
11 | 47:36.00 | 3:55.34 | 214200 | 231858
12 | 51:31.34 | 5:20.38 | 231859 | 255896
Range status and errors
Selected range
Filename C:\Users\workutagin\Desktop\Arcara - A Matter Of Time 1997\Arcara - A Matter Of Time 1997.wav
Peak level 100.0 %
Extraction speed 2.1 X
Range quality 99.9 %
Test CRC 5BEA90EB
Copy CRC 5BEA90EB
Copy OK
No errors occurred
AccurateRip summary
Track 1 accurately ripped (confidence 9) [449E5479] (AR v2)
Track 2 accurately ripped (confidence 9) [FD85EE61] (AR v2)
Track 3 accurately ripped (confidence 9) [A4084930] (AR v2)
Track 4 accurately ripped (confidence 9) [450964B4] (AR v2)
Track 5 accurately ripped (confidence 9) [3AA18771] (AR v2)
Track 6 accurately ripped (confidence 9) [639D3CAA] (AR v2)
Track 7 accurately ripped (confidence 9) [91F20643] (AR v2)
Track 8 accurately ripped (confidence 9) [96177FAC] (AR v2)
Track 9 accurately ripped (confidence 9) [B6D97735] (AR v2)
Track 10 accurately ripped (confidence 9) [1144FD25] (AR v2)
Track 11 accurately ripped (confidence 9) [26FC8774] (AR v2)
Track 12 accurately ripped (confidence 9) [51D8FA34] (AR v2)
All tracks accurately ripped
End of status report
==== Log checksum 75100F7018E05DA95A0136A9BA634AE33334DA50725ECB3D85D8EBAAC497F106 ====
Лог проверки качества
AUDIOCHECKER v2.0 beta (build 457) - by Dester - opdester@freemail.hu
~~~~~~~~~~~~~~~~~~~~~~~~~~~~~~~~~~
-=== НЕ РЕДАКТИРУЙТЕ ЭТОТ ФАЙЛ! ===-
Путь: ...\Arcara - A Matter Of Time (1997)
1 -=- Arcara - A Matter Of Time.flac -=- CDDA (99%)
11906116
(Melodic Hard Rock) Arcara - Дискография - 1995-1997 - (2 Альбома), MP3, 320 kbps
Зарегистрирован:
  • 10-Ноя-16 22:12
  • Скачан: 221 раз

Скачать .torrent

18 KB

Тип: обычная
Статус: проверено
Размер: 776.1 MB  ·  magnet2D8912D110B312EA5C0FFB449D0280F5CF0AFA8D
  • Свернуть поддиректории
  • Развернуть
  • Переключить
  • Увел./умен. окно
загружается...
 
All rights reserved © 2017-2018
Loading...
Error