Наполеон: Египетская кампания (2 серии из 2) / Bonaparte La Campagne D'Egypte / Napoleon: The Egyptian Campaign (Фабрис Урлье / Fabrice Hourlier) [2016, Документальный, постановочный, война, HDTVRip 720p]

Статистика раздачи
Размер:  2.63 GB   |   Зарегистрирован:  1 год 4 месяца   |   .torrent скачан:  643 раза
Сиды:  5
Автор
Сообщение

Alf62

Стаж: 10 лет 1 месяц

Сообщений: 2835

flag

Alf62 · 20-Апр-17 05:20 (1 год 5 месяцев назад, ред. 27-Апр-17 19:52)

 

Наполеон: Египетская кампания (2 серии из 2) / Bonaparte La Campagne D'Egypte / Napoleon: The Egyptian Campaign
Год выпуска: 2016
Страна: Франция
Студия: Arte France, Docside Zed
Жанр: Документальный, постановочный, война, историческая реконструкция
Продолжительность: 2 х ~ 00:50:44
Перевод: Студийный (одноголосый закадровый)
Режиссер: Фабрис Урлье / Fabrice Hourlier
Описание: Со времен Французской революции Англия и Франция - кровные враги. Французское правительство поручает генералу Бонапарту разработку операции по вторжению в Англию. Понимая утопичность этого проекта, Бонапарт предпочитает нанести удар по колониям Англии - источникам ее богатств. Завоевание Египта преследовало две главные цели: создание богатой колонии и нанесение удара по извечному противнику французов - англичанам (французы подразумевали, что Египет будет использоваться как плацдарм для вторжения в Индию). В мае 1798 года, началась Египетская экспедиция Бонапарта, которая стала важной вехой во взаимоотношениях Европы и арабо-османского мира в Новое время. В ней приняло участие 40 тысяч солдат и 10 тысяч матросов, а также 167 различных ученых и художников, задачей которых было исследовать Египет во всех его аспектах. Три года эпических сражений, приключений и крупных археологических открытий. И если Египетская кампания с военной точки зрения была неудачной, то с научной точки зрения это был огромный научный успех - расшифровка иероглифов Шамполионом, рождение египтологии и современной археологии.
Доп. информация: Авторство релиза - alf62
Большое СПАСИБО ПЕЧАЛЬ, за предоставленный постер!

imdb: http://www.imdb.com/title/tt5529136/
Тип релиза: HDTVRip 656p
Контейнер: MKV
Видео: MPEG-4 AVC, ~ 3500 Кбит/с, 1280x656, (1,95:1), 25.000 fps
Аудио: Русский AC3, 2 ch, 192 Кбит/сНаполеон: Египетская кампания на SKYTRACKER.cr
Список серий
1. Завоевание / La conquête
2. Открытия / Les découvertes
MediaInfo
Наполеон.Египетская.кампания.(1.серия).Завоевание.2016.AVC.656p.x264.HDTVRip.alf62.mkv
Формат : Matroska
Версия формата : Version 2
Размер файла : 1,31 Гбайт
Продолжительность : 50 м.
Общий поток : 3694 Кбит/сек
Дата кодирования : UTC 2017-04-20 00:04:32
Программа кодирования : mkvmerge v7.8.0 ('River Man') 32bit built on Apr 3 2015 12:11:22
Библиотека кодирования : libebml v1.3.1 + libmatroska v1.4.2
Видео
Идентификатор : 1
Формат : AVC
Формат/Информация : Advanced Video Codec
Профиль формата : High@L4.1
Параметр CABAC формата : Да
Параметр ReFrames формата : 9 кадров
Идентификатор кодека : V_MPEG4/ISO/AVC
Продолжительность : 50 м.
Битрейт : 3500 Кбит/сек
Ширина : 1280 пикселей
Высота : 656 пикселей
Соотношение сторон : 1,951
Режим частоты кадров : Постоянный
Частота кадров : 25,000 кадров/сек
Цветовое пространство : YUV
Субдискретизация насыщенности : 4:2:0
Битовая глубина : 8 бит
Тип развёртки : Прогрессивная
Бит/(Пиксели*Кадры) : 0.167
Размер потока : 1,22 Гбайт (93%)
Библиотека кодирования : x264 core 146 r2538 121396c
Настройки программы : cabac=1 / ref=9 / deblock=1:-2:-2 / analyse=0x3:0x113 / me=umh / subme=10 / psy=1 / psy_rd=1.00:0.00 / mixed_ref=1 / me_range=32 / chroma_me=1 / trellis=2 / 8x8dct=1 / cqm=0 / deadzone=21,11 / fast_pskip=0 / chroma_qp_offset=-2 / threads=6 / lookahead_threads=1 / sliced_threads=0 / nr=0 / decimate=0 / interlaced=0 / bluray_compat=0 / constrained_intra=0 / bframes=9 / b_pyramid=2 / b_adapt=2 / b_bias=0 / direct=3 / weightb=1 / open_gop=0 / weightp=2 / keyint=250 / keyint_min=25 / scenecut=40 / intra_refresh=0 / rc_lookahead=40 / rc=2pass / mbtree=0 / bitrate=3500 / ratetol=1.0 / qcomp=0.60 / qpmin=10 / qpmax=51 / qpstep=4 / cplxblur=20.0 / qblur=0.5 / vbv_maxrate=14000 / vbv_bufsize=14000 / nal_hrd=none / filler=0 / ip_ratio=1.40 / pb_ratio=1.30 / aq=1:0.80
Default : Да
Forced : Нет
Аудио
Идентификатор : 2
Формат : AC-3
Формат/Информация : Audio Coding 3
Расширение режима : CM (complete main)
Параметр Endianness формата : Big
Идентификатор кодека : A_AC3
Продолжительность : 50 м.
Вид битрейта : Постоянный
Битрейт : 192 Кбит/сек
Каналы : 2 канала
Расположение каналов : Front: L R
Частота : 48,0 КГц
Битовая глубина : 16 бит
Метод сжатия : С потерями
Размер потока : 69,7 Мбайт (5%)
Default : Да
Forced : Нет
[свернуть]
Скриншоты
Зарегистрирован:
  • 27-Апр-17 19:52
  • Скачан: 643 раза

Скачать .torrent

14 KB

Тип: обычная
Статус: проверено
Размер: 2.63 GB  ·  magnetA2F25E4FF5522D55B4D8FBD1680C473B5CD5CE65
  • Свернуть поддиректории
  • Развернуть
  • Переключить
  • Увел./умен. окно
загружается...

Alf62

Стаж: 10 лет 1 месяц

Сообщений: 2835

flag

Alf62 · 27-Апр-17 19:53 (спустя 7 дней, ред. 27-Апр-17 19:53)

Внимание!
Добавлена 2-я серия:
2. Открытия / Les découvertes

AlexSchl

VIP (Заслуженный)

Стаж: 9 лет 8 месяцев

Сообщений: 3001

flag

AlexSchl · 06-Май-17 22:20 (спустя 9 дней)

Alf62 писал(а):
729469331280x656, (16:9)
1,95:1, поправил вам техданные.
| | | |
 
All rights reserved © 2017-2018
Loading...
Error