ѕриключени€ желтого чемоданчика (»ль€ ‘рэз) [1970, детский, DVB]

—татистика раздачи
–азмер:  2.61 GB   |   «арегистрирован:  4 года 9 мес€цев   |   .torrent скачан:  5,136 раз
—иды:  10
јвтор
—ообщение

SLuMeP

Top Seed 05* 640r

—таж: 8 лет 5 мес€цев

—ообщений: 2316

flag

SLuMeP · 22-ƒек-13 17:07 (4 года 9 мес€цев назад)

 

ѕриключени€ желтого чемоданчика
∆анр: детский
√од выпуска: 1970
ѕродолжительность: 01:14:02
–ежиссЄр: »ль€ ‘рэз
¬ рол€х: “ать€на ѕельтцер, ≈вгений Ћебедев, Ќаталь€ —елезнЄва, Ѕорис Ѕыстров, Ћариса “ихонова, ¬иктор “ихонов, ≈вгений ¬есник,  онстантин  унтышев, јндрей √ромов, ¬иктори€ „ернакова
ќписание: Ђѕриключени€ жЄлтого чемоданчикаї - детский фильм-сказка. ѕо стечению обсто€тельств чемоданчик жЄлтого цвета с необыкновенными лекарствами попал в чужие руки, в результате чего под угрозой оказались жизни бабушки “омы, лЄтчика ¬ерЄвкина (папы “омы), дрессировщика тигров Ѕуланкина. ƒети и взрослые в погоне за желтым чемоданчиком станов€тс€ участниками увлекательных и драматических событий ...

“рансл€ци€ спутникового канала:
—емпл: http://yadi.sk/d/t1ylOl1JEjDMD
 ачество видео: DVB
‘ормат видео: MPEG-PS
¬идео: MPEG2 Video, 720x576 (4:3), 25 fps, 4800 kbps
јудио: MPEG Audiо, 2 сh, 48 kHz, 192 kbps
MediaInfo
G:\ѕриключени€ желтого чемоданчика. (1970)_DVB by SLuMeP.mpg
General
Complete name : G:\ѕриключени€ желтого чемоданчика. (1970)_DVB by SLuMeP.mpg
Format : MPEG-PS
File size : 2.61 GiB
Duration : 1h 14mn
Overall bit rate mode : Variable
Overall bit rate : 5 051 Kbps
Writing library : (c) 1998-2010 Womble Multimedia, Inc. / MPEG Video Wizard DVD 5.0.0.114 (01/2010) / Apr 20 2010
Video #224
ID : 224 (0xE0)
Format : MPEG Video
Format version : Version 2
Format profile : Main@Main
Format settings, BVOP : Yes
Format settings, Matrix : Custom
Format settings, GOP : M=3, N=36
Duration : 1h 14mn
Bit rate mode : Variable
Bit rate : 4 758 Kbps
Maximum bit rate : 15.0 Mbps
Width : 720 pixels
Height : 576 pixels
Display aspect ratio : 4:3
Frame rate : 25.000 fps
Standard : PAL
Color space : YUV
Chroma subsampling : 4:2:0
Bit depth : 8 bits
Scan type : Interlaced
Scan order : Top Field First
Compression mode : Lossy
Bits/(Pixel*Frame) : 0.459
Stream size : 2.46 GiB (94%)
Writing library : (c) 1998-2010 Womble Multimedia, Inc. / MPEG Video Wizard DVD 5.0.0.114 (01/2010) / Apr 20 2010
Audio #192
ID : 192 (0xC0)
Format : MPEG Audio
Format version : Version 1
Format profile : Layer 2
Duration : 1h 14mn
Bit rate mode : Constant
Bit rate : 192 Kbps
Channel(s) : 2 channels
Sampling rate : 48.0 KHz
Compression mode : Lossy
Delay relative to video : -40ms
Stream size : 102 MiB (4%)
Menu
—криншоты
«арегистрирован:
  • 22-ƒек-13 17:07
  • —качан: 5,136 раз

—качать .torrent

13 KB

“ип: обычна€
—татус: проверено
–азмер: 2.61 GB  ·  magnetA0264DEC006871CAD362D7694BFF651780563761
  • —вернуть поддиректории
  • –азвернуть
  • ѕереключить
  • ”вел./умен. окно
загружаетс€...

cherebzdjaha

—таж: 10 лет 3 мес€ца

—ообщений: 552

flag

cherebzdjaha · 22-ƒек-13 19:02 (спуст€ 1 час 55 мин.)

 лассный фильм,особенно песенка хулиганов нравитс€...
√орода-это паразитические центры!ћы всЄ переиначем - Ќестор ћахно
∆изнь надо прожить так,чтобы второй раз не захотелось...
not many not funny

Nils2010

—таж: 5 лет 7 мес€цев

—ообщений: 100

flag

Nils2010 · 22-ƒек-13 22:32 (спуст€ 3 часа)

¬от оперативность - вчера в телевизоре, сегодн€ на трекере! —пасибо!

ShajtanWaP

—таж: 11 лет 4 мес€ца

—ообщений: 5

flag

ShajtanWaP · 14-јвг-17 12:32 (спуст€ 3 года 7 мес€цев)

—ыну (6 лет) этот фильм почему-то дико запал: пересматривает уже шестой раз за две недели, песни оттуда выучил... «амечательное кино!
 
All rights reserved © 2017-2018
Loading...
Error