Рим: Первая сверхдержава (1-4 серии из 4) / Rome: The World's First Superpower (Дэвид Старки / David Starkey) [2014, Документальный, история, HDTVRip 720p]

Статистика раздачи
Размер:  5.18 GB   |   Зарегистрирован:  11 месяцев   |   .torrent скачан:  1,313 раз
Сиды:  11   Личи:  1
Автор
Сообщение

kyba62

Top Bonus 07* 100TB

Стаж: 10 лет 5 месяцев

Сообщений: 610

flag

kyba62 · 16-Окт-17 22:29 (11 месяцев назад, ред. 16-Окт-17 23:18)

 

Рим: Первая сверхдержава (1-4 серии из 4) / Rome: The World's First Superpower
Год выпуска: 2014
Страна: Великобритания
Студия: 360Production Ltd and Group Entertainment Ltd for Channel 5
Жанр: Документальный, история
Продолжительность: 4 x ~ 00:43:34
Перевод: Студийный (одноголосый закадровый)
Доп. инфо о переводе: SDI Media Group
Режиссер: Дэвид Старки / David Starkey
Описание: 3000 лет назад из небольшого племени вырос великий народ подчинивший мир своей воле. Он создал величайшую империю в истории человечества. Империю, что простиралась от Британии до Ближнего Востока. Она просуществовала тысячу лет и повлияла на тот мир, в котором живем мы с вами. Актер Ларри Ламб отправляется в прошлое, которое таится за мраморными памятниками, что бы выяснить кем были эти люди и как они добились такого успеха. От самых древних развалин империи до ее первых завоеваний в Африке, от царства до республики, от Ромула и Рема до Юлия Цезаря. Он попытается приоткрыть завесу того как Рим стал первой сверхдержавой мира.

Сэмпл: https://www.sendspace.com/file/wn8277
Тип релиза: HDTVRip 720p
Контейнер: MKV
Видео: 1280x720 (16:9), 25 fps, AVC (x264), High@L4.1, 4000 kbps, 25fps, 0.174 bit/pixel
Аудио: Русский 48 kHz, AC3 Dolby Digital, 2/0 (L,R) ch, ~128.00 kbps avg
Аудио 2: Английский 48 kHz, AC3 Dolby Digital, 2/0 (L,R) ch, ~128.00 kbps avg
MediaInfo
General
Unique ID : 186242439469657806378284514280080843326 (0x8C1CFD363FE9B914BFAE29B20426A23E)
Complete name : D:\Торренты\Фильмы\Документальные\Рим. Первая сверхдержава\Рим_Первая сверхдержава_1_720p.mkv
Format : Matroska
Format version : Version 4 / Version 2
File size : 1.30 GiB
Duration : 43 min 34 s
Overall bit rate : 4 257 kb/s
Encoded date : UTC 2017-10-16 18:53:22
Writing application : mkvmerge v6.6.0 ('The Edge Of The In Between') built on Dec 1 2013 17:55:00
Writing library : libebml v1.3.0 + libmatroska v1.4.1
Video
ID : 1
Format : AVC
Format/Info : Advanced Video Codec
Format profile : High@L4.1
Format settings : CABAC / 9 Ref Frames
Format settings, CABAC : Yes
Format settings, RefFrames : 9 frames
Codec ID : V_MPEG4/ISO/AVC
Duration : 43 min 34 s
Bit rate : 4 000 kb/s
Width : 1 280 pixels
Height : 720 pixels
Display aspect ratio : 16:9
Frame rate mode : Constant
Frame rate : 25.000 FPS
Color space : YUV
Chroma subsampling : 4:2:0
Bit depth : 8 bits
Scan type : Progressive
Bits/(Pixel*Frame) : 0.174
Stream size : 1.19 GiB (92%)
Writing library : x264 core 148 r2744 b97ae06
Encoding settings : cabac=1 / ref=9 / deblock=1:-3:-3 / analyse=0x3:0x133 / me=umh / subme=9 / psy=1 / psy_rd=1.00:0.00 / mixed_ref=1 / me_range=32 / chroma_me=1 / trellis=2 / 8x8dct=1 / cqm=0 / deadzone=21,11 / fast_pskip=1 / chroma_qp_offset=-2 / threads=12 / lookahead_threads=2 / sliced_threads=0 / nr=0 / decimate=0 / interlaced=0 / bluray_compat=0 / constrained_intra=0 / bframes=9 / b_pyramid=2 / b_adapt=2 / b_bias=0 / direct=3 / weightb=1 / open_gop=0 / weightp=2 / keyint=250 / keyint_min=25 / scenecut=40 / intra_refresh=0 / rc_lookahead=50 / rc=2pass / mbtree=1 / bitrate=4000 / ratetol=1.0 / qcomp=0.60 / qpmin=0 / qpmax=69 / qpstep=4 / cplxblur=20.0 / qblur=0.5 / ip_ratio=1.40 / aq=1:1.00
Language : English
Default : Yes
Forced : No
Audio #1
ID : 2
Format : AC-3
Format/Info : Audio Coding 3
Format settings, Endianness : Big
Codec ID : A_AC3
Duration : 43 min 34 s
Bit rate mode : Constant
Bit rate : 128 kb/s
Channel(s) : 2 channels
Channel positions : Front: L R
Sampling rate : 48.0 kHz
Frame rate : 31.250 FPS (1536 SPF)
Bit depth : 16 bits
Compression mode : Lossy
Stream size : 39.9 MiB (3%)
Language : Russian
Service kind : Complete Main
Default : Yes
Forced : No
Audio #2
ID : 3
Format : AC-3
Format/Info : Audio Coding 3
Format settings, Endianness : Big
Codec ID : A_AC3
Duration : 43 min 34 s
Bit rate mode : Constant
Bit rate : 128 kb/s
Channel(s) : 2 channels
Channel positions : Front: L R
Sampling rate : 48.0 kHz
Frame rate : 31.250 FPS (1536 SPF)
Bit depth : 16 bits
Compression mode : Lossy
Stream size : 39.9 MiB (3%)
Language : English
Service kind : Complete Main
Default : No
Forced : No
General
Unique ID : 190659986422317471244370091511327960013 (0x8F6FC717A814815BA060960C3BC72BCD)
Complete name : D:\Торренты\Фильмы\Документальные\Рим. Первая сверхдержава\Рим_Первая сверхдержава_2_720p.mkv
Format : Matroska
Format version : Version 4 / Version 2
File size : 1.30 GiB
Duration : 43 min 34 s
Overall bit rate : 4 257 kb/s
Encoded date : UTC 2017-10-16 13:23:03
Writing application : mkvmerge v6.6.0 ('The Edge Of The In Between') built on Dec 1 2013 17:55:00
Writing library : libebml v1.3.0 + libmatroska v1.4.1
Video
ID : 1
Format : AVC
Format/Info : Advanced Video Codec
Format profile : High@L4.1
Format settings : CABAC / 9 Ref Frames
Format settings, CABAC : Yes
Format settings, RefFrames : 9 frames
Codec ID : V_MPEG4/ISO/AVC
Duration : 43 min 34 s
Bit rate : 4 000 kb/s
Width : 1 280 pixels
Height : 720 pixels
Display aspect ratio : 16:9
Frame rate mode : Constant
Frame rate : 25.000 FPS
Color space : YUV
Chroma subsampling : 4:2:0
Bit depth : 8 bits
Scan type : Progressive
Bits/(Pixel*Frame) : 0.174
Stream size : 1.19 GiB (92%)
Writing library : x264 core 148 r2744 b97ae06
Encoding settings : cabac=1 / ref=9 / deblock=1:-3:-3 / analyse=0x3:0x133 / me=umh / subme=9 / psy=1 / psy_rd=1.00:0.00 / mixed_ref=1 / me_range=32 / chroma_me=1 / trellis=2 / 8x8dct=1 / cqm=0 / deadzone=21,11 / fast_pskip=1 / chroma_qp_offset=-2 / threads=12 / lookahead_threads=2 / sliced_threads=0 / nr=0 / decimate=0 / interlaced=0 / bluray_compat=0 / constrained_intra=0 / bframes=9 / b_pyramid=2 / b_adapt=2 / b_bias=0 / direct=3 / weightb=1 / open_gop=0 / weightp=2 / keyint=250 / keyint_min=25 / scenecut=40 / intra_refresh=0 / rc_lookahead=50 / rc=2pass / mbtree=1 / bitrate=4000 / ratetol=1.0 / qcomp=0.60 / qpmin=0 / qpmax=69 / qpstep=4 / cplxblur=20.0 / qblur=0.5 / ip_ratio=1.40 / aq=1:1.00
Language : English
Default : Yes
Forced : No
Audio #1
ID : 2
Format : AC-3
Format/Info : Audio Coding 3
Format settings, Endianness : Big
Codec ID : A_AC3
Duration : 43 min 34 s
Bit rate mode : Constant
Bit rate : 128 kb/s
Channel(s) : 2 channels
Channel positions : Front: L R
Sampling rate : 48.0 kHz
Frame rate : 31.250 FPS (1536 SPF)
Bit depth : 16 bits
Compression mode : Lossy
Stream size : 39.9 MiB (3%)
Language : Russian
Service kind : Complete Main
Default : Yes
Forced : No
Audio #2
ID : 3
Format : AC-3
Format/Info : Audio Coding 3
Format settings, Endianness : Big
Codec ID : A_AC3
Duration : 43 min 34 s
Bit rate mode : Constant
Bit rate : 128 kb/s
Channel(s) : 2 channels
Channel positions : Front: L R
Sampling rate : 48.0 kHz
Frame rate : 31.250 FPS (1536 SPF)
Bit depth : 16 bits
Compression mode : Lossy
Stream size : 39.9 MiB (3%)
Language : English
Service kind : Complete Main
Default : No
Forced : No
General
Unique ID : 182678271888785000009804814276441720681 (0x896E8E2ED285B6528612F76814FCC769)
Complete name : D:\Торренты\Фильмы\Документальные\Рим. Первая сверхдержава\Рим_Первая сверхдержава_3_720p.mkv
Format : Matroska
Format version : Version 4 / Version 2
File size : 1.30 GiB
Duration : 43 min 39 s
Overall bit rate : 4 257 kb/s
Encoded date : UTC 2017-10-16 13:28:33
Writing application : mkvmerge v6.6.0 ('The Edge Of The In Between') built on Dec 1 2013 17:55:00
Writing library : libebml v1.3.0 + libmatroska v1.4.1
Video
ID : 1
Format : AVC
Format/Info : Advanced Video Codec
Format profile : High@L4.1
Format settings : CABAC / 9 Ref Frames
Format settings, CABAC : Yes
Format settings, RefFrames : 9 frames
Codec ID : V_MPEG4/ISO/AVC
Duration : 43 min 39 s
Bit rate : 4 000 kb/s
Width : 1 280 pixels
Height : 720 pixels
Display aspect ratio : 16:9
Frame rate mode : Constant
Frame rate : 25.000 FPS
Color space : YUV
Chroma subsampling : 4:2:0
Bit depth : 8 bits
Scan type : Progressive
Bits/(Pixel*Frame) : 0.174
Stream size : 1.19 GiB (92%)
Writing library : x264 core 148 r2744 b97ae06
Encoding settings : cabac=1 / ref=9 / deblock=1:-3:-3 / analyse=0x3:0x133 / me=umh / subme=9 / psy=1 / psy_rd=1.00:0.00 / mixed_ref=1 / me_range=32 / chroma_me=1 / trellis=2 / 8x8dct=1 / cqm=0 / deadzone=21,11 / fast_pskip=1 / chroma_qp_offset=-2 / threads=12 / lookahead_threads=2 / sliced_threads=0 / nr=0 / decimate=0 / interlaced=0 / bluray_compat=0 / constrained_intra=0 / bframes=9 / b_pyramid=2 / b_adapt=2 / b_bias=0 / direct=3 / weightb=1 / open_gop=0 / weightp=2 / keyint=250 / keyint_min=25 / scenecut=40 / intra_refresh=0 / rc_lookahead=50 / rc=2pass / mbtree=1 / bitrate=4000 / ratetol=1.0 / qcomp=0.60 / qpmin=0 / qpmax=69 / qpstep=4 / cplxblur=20.0 / qblur=0.5 / ip_ratio=1.40 / aq=1:1.00
Language : English
Default : Yes
Forced : No
Audio #1
ID : 2
Format : AC-3
Format/Info : Audio Coding 3
Format settings, Endianness : Big
Codec ID : A_AC3
Duration : 43 min 39 s
Bit rate mode : Constant
Bit rate : 128 kb/s
Channel(s) : 2 channels
Channel positions : Front: L R
Sampling rate : 48.0 kHz
Frame rate : 31.250 FPS (1536 SPF)
Bit depth : 16 bits
Compression mode : Lossy
Stream size : 40.0 MiB (3%)
Language : Russian
Service kind : Complete Main
Default : Yes
Forced : No
Audio #2
ID : 3
Format : AC-3
Format/Info : Audio Coding 3
Format settings, Endianness : Big
Codec ID : A_AC3
Duration : 43 min 39 s
Bit rate mode : Constant
Bit rate : 128 kb/s
Channel(s) : 2 channels
Channel positions : Front: L R
Sampling rate : 48.0 kHz
Frame rate : 31.250 FPS (1536 SPF)
Bit depth : 16 bits
Compression mode : Lossy
Stream size : 40.0 MiB (3%)
Language : English
Service kind : Complete Main
Default : No
Forced : No
Содержание
01. Кровавый город / City of Blood
Мы рассказываем историю Ромула и Рема и ищем доказательства доисторических поселений в долине Тибра. А в канализации Древнего Рима мы узнаем, как его первые лидеры сделали город каменным.
02. Тотальная война / Total War
Агрессивная экспансия Рима сталкивает его с другой великой державой - Карфагеном. Археологические находки на дне моря близ Сицилии рассказывают о жестоких морских сражениях.
03. Смерть героя / Death of a Hero
Мы находим объяснение огромным богатствам, хлынувшим в республику после Помпей и Фиден, а также встречаемся с неожиданным защитником народа, положившем конец неравенству.
04. Цезарь / Caesar
История Юлия Цезаря, величайшего римлянина всех времен. Его мемуары рассказывают о путешествиях, а бастионы французской Алезии и инфракрасные снимки показывают обширность его военных кампаний.
Зарегистрирован:
  • 16-Окт-17 22:29
  • Скачан: 1,313 раз

Скачать .torrent

27 KB

Тип: обычная
Статус: проверено
Размер: 5.18 GB  ·  magnet182BD06ADB1AD82B40D5F251D1D982BB452B804A
  • Свернуть поддиректории
  • Развернуть
  • Переключить
  • Увел./умен. окно
загружается...
 
All rights reserved © 2017-2018
Loading...
Error