Бойтесь ходячих мертвецов / Fear the Walking Dead / Сезон: 4 / Серии: 1-14 из 16 (Адам Дэвидсон, Кари Скогланд, Стефан Шварц) [2018, США, ужасы, драма, WEBRip] DVO (Gears Media) + Original

Статистика раздачи
Размер:  6.9 GB   |   Зарегистрирован:  5 дней   |   .torrent скачан:  121 раз
Сиды:  2   Личи:  6
Автор
Сообщение

T_A_R

Стаж: 6 лет 5 месяцев

Сообщений: 675

flag

T_A_R · 17-Апр-18 21:09 (5 месяцев 6 дней назад, ред. 18-Сен-18 06:15)

 

Бойтесь ходячих мертвецов / Fear the Walking Dead
Год выпуска: 2018
Страна: США
Жанр: ужасы, драма
Продолжительность: ~ 00:43:00
Перевод: Профессиональный (двухголосый закадровый) Gears Media
Режиссёр: Адам Дэвидсон, Кари Скогланд, Стефан Шварц
В ролях: Клифф Кёртис, Ким Диккенс, Алисия Дебнем-Кери, Фрэнк Диллэйн, Рубен Блэйдс, Мерседес Масон, Колман Доминго, Лоренцо Джеймс Хенри, Элизабет Родригес, Тони Френч
Описание:
Действия сериала происходят параллельно с событиями зомби-апокалипсиса, показанными в сериале «Ходячие мертвецы», но в совершенно другом месте — Лос-Анджелесе. В центре сюжета находится семья матери-одиночки и консультанта по профессиям Мэдисон Кларк и разведённого учителя Трэвиса Манавы, которые вместе пытаются выжить в зомби-апокалипсисе.
Ссылка на предыдущие и альтернативные раздачи: http://SKYTRACKER.XYZ/tracker.php?g=foreign_serials&nm=Fear+the+Walking+Dead
Сэмпл: http://multi-up.com/1195349
Качество: WEBRip
Формат: AVI
Видео: XviD, 720x400 at 23.976 fps, ~1500 kbps avg
Аудио1: Russian, MP3, 48 kHz, 2 ch, 128 kbps
Аудио2: English, MP3, 48 kHz, 2 ch, 128 kbps
Субтитры: нет
Реклама: аудио (два раза, в начале и конце, по 12 сек.)
MediaInfo
Format : AVI
Format/Info : Audio Video Interleave
File size : 620 MiB
Duration : 49 min 8 s
Overall bit rate : 1 765 kb/s
Writing application : Lavf56.30.100
Video
ID : 0
Format : xvid
Codec ID : xvid
Duration : 49 min 8 s
Bit rate : 1 488 kb/s
Width : 720 pixels
Height : 400 pixels
Display aspect ratio : 16:9
Frame rate : 23.976 (24000/1001) FPS
Scan type : Progressive
Bits/(Pixel*Frame) : 0.215
Stream size : 523 MiB (84%)
Audio #1
ID : 1
Format : MPEG Audio
Format version : Version 1
Format profile : Layer 3
Format settings : Joint stereo / MS Stereo
Codec ID : 55
Codec ID/Hint : MP3
Duration : 49 min 8 s
Bit rate mode : Constant
Bit rate : 128 kb/s
Channel(s) : 2 channels
Sampling rate : 48.0 kHz
Compression mode : Lossy
Stream size : 45.0 MiB (7%)
Alignment : Aligned on interleaves
Interleave, duration : 24 ms (0.58 video frame)
Interleave, preload duratio : 24 ms
Title : Gears Media
Writing library : LAME3.99.5ЄЄЄЄЄЄЄЄЄЄ
Audio #2
ID : 2
Format : MPEG Audio
Format version : Version 1
Format profile : Layer 3
Format settings : Joint stereo / MS Stereo
Codec ID : 55
Codec ID/Hint : MP3
Duration : 49 min 8 s
Bit rate mode : Constant
Bit rate : 128 kb/s
Channel(s) : 2 channels
Sampling rate : 48.0 kHz
Compression mode : Lossy
Stream size : 45.0 MiB (7%)
Alignment : Aligned on interleaves
Interleave, duration : 24 ms (0.58 video frame)
Interleave, preload duratio : 24 ms
Writing library : LAME3.99.
Скриншоты
Внимание! Раздача ведётся путём добавления новых серий
Внимание! Раздача ведётся путём добавления новых серий; при каждом добавлении создётся новый торрент. Чтобы начать докачку новой серии, пользователям необходимо сделать следующее:
(1) остановить скачивание,
(2) удалить старый торрент у себя из клиента (старые серии удалять не надо),
(3) скачать новый торрент и запустить его у себя в клиенте вместо старого, при этом указать клиенту путь в старую папку куда и должно происходить скачивание новых серий.
Ваш клиент при этом должен произвести хеширование (проверку) старой папки (если не производит сам - помогите ему сделать это), и будет докачивать только те серии которых у вас ещё нет. Старые серии при этом не удаляются, а продолжают раздаваться!
Eсли вы уже удалили старые серии, то предотвратить повторную закачку старых серий можно, отжав галочку в соответсвующих местах при запуске нового торрента. По возможности, желательно не удалять старые серии как можно дольше чтобы релизёр не столько продолжал раздавать старые серии, а смог сконцентрироваться на новых.
Зарегистрирован:
  • 18-Сен-18 06:15
  • Скачан: 121 раз

Скачать .torrent

36 KB

Тип: обычная
Статус: # сомнительно
Размер: 6.9 GB  ·  magnetF96178C47FD5AA6CDE99537269CC056220EDACC3
  • Свернуть поддиректории
  • Развернуть
  • Переключить
  • Увел./умен. окно
загружается...

Aspergilus

Стаж: 9 лет 1 месяц

Сообщений: 16

flag

Aspergilus · 17-Апр-18 21:44 (спустя 35 мин.)

Замечательная серия !!!!!! Хоть её и не отсюда скачал. Но просто хотелось написать, что давненько такого не было.Произошло,так сказать,небольшое слияние "Ходячих мертвецов" с ребятами из "бойтесь ходячих". Смотрел на одном дыхании. Всем советую!!!)

bot · 17-Апр-18 23:24 (спустя 1 час 39 мин.)

Тема была перенесена из форума Зарубежные сериалы в форум Новинки и сериалы в стадии показа
Wentworth_Miller
 

Wentworth_Miller

Помощник модератора

Стаж: 9 лет 6 месяцев

Сообщений: 5023

flag

Wentworth_Miller · 18-Апр-18 05:43 (спустя 7 часов)

Реклама: аудио (два раза, в начале и конце, по 12 сек.)
+
Writing application: Lavf56.30.100
+
черные полосы
+
отсутствуют настройки кодирования
Подробнее здесь → http://SKYTRACKER.XYZ/viewtopic.php?t=3170857
# сомнительно
Исправили раздачу - напишите ЛС, указав ссылку на релиз.
 
All rights reserved © 2017-2018
Loading...
Error