Любовники / The Affair / Сезон: 4 / Серии: 1-10 из 10 (Марк Майлод) [2018, США, драма, WEB-DLRip] MVO (Jaskier) + Original

Статистика раздачи
Размер:  6.95 GB   |   Зарегистрирован:  1 месяц   |   .torrent скачан:  569 раз
Сиды:  6
Автор
Сообщение

oqlpo

Стаж: 1 год 1 месяц

Сообщений: 210


oqlpo · 21-Июн-18 22:23 (3 месяца 2 дня назад, ред. 23-Авг-18 22:47)

 

Любовники / The Affair
Год выпуска: 2018
Страна: США
Жанр: Драма
Продолжительность: ~ 00:58:00
Перевод: Профессиональный (многоголосый закадровый) | Jaskier
Режиссёр: Марк Майлод
В ролях: Доминик Уэст, Рут Уилсон, Мора Тирни, Джулия Голден Теллес, Джошуа Джексон, Даррен Голдштейн, Майкл Годер, Лавиния Джонс Райт, Джэдон Сэнд, Никки Робинсон
Описание: Любовная драма о запретной страсти со всеми вытекающими последствиями. Добропорядочный семьянин приезжает на отдых с семьей в приморский городок, где себе на беду встречает официантку закусочной. Оба женаты — и единственная измена запускает механизм, который разрушит два брака и жизни четырех людей.

Качество: WEB-DLRip
Формат: AVI
Видео: XviD, ~ 1400 kbps, 720x400, 23.976 fps
Аудио 1: MP3, 48,0 КГц, 2 ch, 128 kbps - RUS
Аудио 2: MP3, 48,0 КГц, 2 ch, 128 kbps - ENG
Субтитры: отсутствуют
Реклама: аудио, два раза в начале и в конце по 13 секунд
Ссылка на предыдущие и альтернативные раздачи
MediaInfo
Код:
Общее
Формат                                   : AVI
Формат/Информация                        : Audio Video Interleave
Размер файла                             : 686 Мбайт
Продолжительность                        : 57 м.
Общий поток                              : 1670 Кбит/сек
Программа кодирования                    : VirtualDubMod 1.5.10.3 | www.virtualdub-fr.org || (build 2550/release)
Библиотека кодирования                   : VirtualDubMod build 2550/release
Видео
Идентификатор                            : 0
Формат                                   : MPEG-4 Visual
Профиль формата                          : Advanced Simple@L5
Параметр BVOP формата                    : 2
Параметр QPel формата                    : Нет
Параметр GMC формата                     : Без точки перехода
Параметр матрицы формата                 : Выборочная
Идентификатор кодека                     : XVID
Идентификатор кодека/Подсказка           : XviD
Продолжительность                        : 57 м.
Битрейт                                  : 1400 Кбит/сек
Ширина                                   : 720 пикселей
Высота                                   : 400 пикселей
Соотношение сторон                       : 16:9
Частота кадров                           : 23,976 (23976/1000) кадра/сек
Цветовое пространство                    : YUV
Субдискретизация насыщенности            : 4:2:0
Битовая глубина                          : 8 бит
Тип развёртки                            : Прогрессивная
Метод сжатия                             : С потерями
Бит/(Пиксели*Кадры)                      : 0.203
Размер потока                            : 575 Мбайт (84%)
Библиотека кодирования                   : XviD 73
Аудио #1
Идентификатор                            : 1
Формат                                   : MPEG Audio
Версия формата                           : Version 1
Профиль формата                          : Layer 3
Режим                                    : Joint stereo
Расширение режима                        : MS Stereo
Идентификатор кодека                     : 55
Идентификатор кодека/Подсказка           : MP3
Продолжительность                        : 57 м.
Вид битрейта                             : Постоянный
Битрейт                                  : 128 Кбит/сек
Каналы                                   : 2 канала
Частота                                  : 48,0 КГц
Метод сжатия                             : С потерями
Размер потока                            : 52,6 Мбайт (8%)
Выравнивание                             : Соединение по промежуткам
Продолжительность промежутка             : 42  мс. (1,00 видеокадр)
Время предзагрузки промежутка            : 504  мс.
Аудио #2
Идентификатор                            : 2
Формат                                   : MPEG Audio
Версия формата                           : Version 1
Профиль формата                          : Layer 3
Режим                                    : Joint stereo
Расширение режима                        : MS Stereo
Идентификатор кодека                     : 55
Идентификатор кодека/Подсказка           : MP3
Продолжительность                        : 57 м.
Вид битрейта                             : Постоянный
Битрейт                                  : 128 Кбит/сек
Каналы                                   : 2 канала
Частота                                  : 48,0 КГц
Метод сжатия                             : С потерями
Размер потока                            : 52,6 Мбайт (8%)
Выравнивание                             : Соединение по промежуткам
Продолжительность промежутка             : 42  мс. (1,00 видеокадр)
Время предзагрузки промежутка            : 504  мс.
Скриншоты
Раздача ведется путем добавления новых серий
Когда раздача ведётся путём добавления новых серий, при каждом добавлении создётся новый торрент. Чтобы начать докачку новой серии, пользователям необходимо сделать следующее:
(1) остановить скачивание,
(2) удалить старый торрент у себя из клиента (старые серии удалять не надо),
(3) скачать новый торрент и запустить его у себя в клиенте вместо старого, при этом указать клиенту путь в старую папку, куда и должно происходить скачивание новых серий.
Ваш клиент при этом должен произвести хеширование (проверку) старой папки (если не производит сам - помогите ему сделать это), и будет докачивать только те серии, которых у вас ещё нет. Старые серии при этом не удаляются, а продолжают раздаваться!
Eсли вы уже удалили старые серии, то предотвратить повторную закачку старых серий можно, отжав галочку в соответсвующих местах при запуске нового торрента. По возможности, желательно не удалять старые серии как можно дольше, чтобы релизёр не столько продолжал раздавать старые серии, а смог сконцентрироваться на новых.
Зарегистрирован:
  • 23-Авг-18 22:47
  • Скачан: 569 раз

Скачать .torrent

36 KB

Тип: обычная
Статус: T временная
Размер: 6.95 GB  ·  magnet996F2689DF91D6E8995B6C1D2548299AF4399C70
  • Свернуть поддиректории
  • Развернуть
  • Переключить
  • Увел./умен. окно
загружается...

Celta88

Помощник модератора

Стаж: 9 лет 4 месяца

Сообщений: 4218

flag

Celta88 · 21-Июн-18 23:45 (спустя 1 час 21 мин.)

Цитата:
Реклама: аудио, два раза в начале и в конце по 13 секунд
ПРАВИЛО О РЕКЛАМЕ (01.11.2016)
T временная
Правила раздела Зарубежные сериалы
Методы обхода блокировки
Чемпионат Мира по футболу 2018

Если в моих раздачах отсутствуют сиды - напишите об этом в комментариях!

bot · 21-Июн-18 23:45 (спустя 18 сек.)

Тема была перенесена из форума Зарубежные сериалы в форум Новинки и сериалы в стадии показа
Celta88
 

Altaviel

Стаж: 10 лет 1 месяц

Сообщений: 28

flag

Altaviel · 03-Июл-18 10:26 (спустя 11 дней)

Celta88 писал(а):
75541490
Цитата:
Реклама: аудио, два раза в начале и в конце по 13 секунд
ПРАВИЛО О РЕКЛАМЕ (01.11.2016)
T временная
реклама там не в начале и в конце, а посреди серии и внезапно.

bot · 23-Авг-18 23:43 (спустя 1 месяц 20 дней)

Тема была перенесена из форума Новинки и сериалы в стадии показа в форум Сериалы США и Канады
Celta88
 
 
All rights reserved © 2017-2018
Loading...
Error