(Melodic Hard Rock) Edge Of Forever - Another Paradise - 2010, APE (image+.cue), lossless

Статистика раздачи
Размер:  472.8 MB   |   Зарегистрирован:  8 лет 6 месяцев   |   .torrent скачан:  867 раз
Сиды:  2
Автор
Сообщение

fullmoon1

Top Seed 01* 40r

Стаж: 10 лет 7 месяцев

Сообщений: 175

flag

fullmoon1 · 21-Фев-10 18:31 (8 лет 6 месяцев назад, ред. 10-Июл-11 21:33)

 

Edge Of Forever - Another Paradise
Жанр:Melodic Hard Rock
Год выпуска диска: 2010
Страна: Italy
Аудио кодек: APE
Тип рипа: image+.cue
Битрейт аудио: lossless
Продолжительность: 49:58
Источник: CD
Трэклист:
1. Distant Voices
2. Another Paradise
3. Lonely
4. Edge Of Life
5. I Wont Call You
6. My Revenge
7. What Ive Never Seen
8. What A Feeling (Irene Cara Cover)
9. Eye Of The Storm
10. Against The Wall
Доп. информация:
Состав:
Alessandro Del Vecchio – Vocals and Keyboards
Walter Caliaro – Guitars
Nik Mazzucconi – Bass
Francesco Jovino – Drums
guests:
Bob Harris – Backing Vocals
Roberto Tiranti – Backing Vocals
Jgor Gianola – Guitar Solo
Carsten (Lizard) Schulz – Backing Vocals
Log:
Отчёт EAC об извлечении, выполненном 21. февраля 2010, 17:25 для диска:
Edge of Forever / Another Paradise
Дисковод: _NEC DVD_RW ND-3540A Adapter: 1 ID: 0
Режим чтения: Достоверный (C2: нет, Точный поток: да, Отключение кэша: да)
Коррекция смещения при чтении: 48
Способность читать области Lead-in и Lead-out : Нет
Выходной формат: Monkey's Audio Lossless Encoder v3.99 DLL
High Lossless Compression
Другие параметры:
Заполнение пропущенных сэмплов тишиной : Да
Удаление блоков с тишиной в начале и конце : Нет
Встроенный Win32-интерфейс для Win NT/2000
Характеристики диапазона извлечения и сообщения об ошибках
Выбранный диапазон
Имя файла D:\My Music\Edge of Forever - Another Paradise.ape
Пиковый уровень 98.8 %
Качество диапазона 99.9 %
CRC 61BFEA38
Копирование... OK
Ошибок не произошло
Конец отчёта
MySpace
Зарегистрирован:
  • 21-Фев-10 18:31
  • Скачан: 867 раз
Скачать .torrent через uBar.pro

Скачать .torrent

19 KB

Тип: обычная
Статус: проверено
Размер: 472.8 MB  ·  magnetE4DDE1307C447F8E83B62D7581B979FEBAECBED4
  • Свернуть поддиректории
  • Развернуть
  • Переключить
  • Увел./умен. окно
загружается...

greybura

Top Seed 01* 40r

Стаж: 9 лет 9 месяцев

Сообщений: 414

flag

greybura · 18-Мар-10 17:26 (спустя 24 дня, ред. 18-Мар-10 20:29)

fullmoon1 Спасибо за релиз.
Приобрел диск, рипанул и в кой-чего не въезжаю, почему в моем логе указывается что рипа нет в базе AccurateRip?
Если вопрос туповат прошу сильно не пинать, - но как такое может быть?
И вот мой лог (нужное выделил красным):
скрытый текст
Exact Audio Copy V0.99 prebeta 4 from 23. January 2008
Отчёт EAC об извлечении, выполненном 18. марта 2010, 17:38
Edge Of Forever / Another Paradise
Дисковод: Optiarc DVD RW AD-5170A Adapter: 2 ID: 0
Режим чтения : Достоверность
Использование точного потока : Да
Отключение кэша аудио : Да
Использование указателей C2 : Нет
Коррекция смещения при чтении : 48
Способность читать области Lead-in и Lead-out : Нет
Заполнение пропущенных сэмплов тишиной : Да
Удаление блоков с тишиной в начале и конце : Нет
При вычислениях CRC использовались нулевые сэмплы : Да
Интерфейс : Установленный внешний ASPI-интерфейс
Выходной формат : Внутренние WAV-операции
Формат сэмплов : 44.100 Гц; 16 бит; стерео
TOC извлечённого CD
Трек | Старт | Длительность | Начальный сектор | Конечный сектор
---------------------------------------------------------------------
1 | 0:00.00 | 5:31.64 | 0 | 24888
2 | 5:31.64 | 4:35.36 | 24889 | 45549
3 | 10:07.25 | 4:27.71 | 45550 | 65645
4 | 14:35.21 | 5:09.65 | 65646 | 88885
5 | 19:45.11 | 5:42.35 | 88886 | 114570
6 | 25:27.46 | 3:43.54 | 114571 | 131349
7 | 29:11.25 | 5:53.54 | 131350 | 157878
8 | 35:05.04 | 3:56.48 | 157879 | 175626
9 | 39:01.52 | 5:29.71 | 175627 | 200372
10 | 44:31.48 | 5:49.60 | 200373 | 226607
Характеристики диапазона извлечения и сообщения об ошибках
Выбранный диапазон
Имя файла E:\Heavy Metal\Edge Of Forever\Edge Of Forever - Another Paradise.wav
Пиковый уровень 98.8 %
Качество диапазона 99.9 %
CRC копии 61BFEA38
Копирование... OK
Ошибок не произошло
AccurateRip: сводка
Трек 1 нет в базе данных
Трек 2 нет в базе данных
Трек 3 нет в базе данных
Трек 4 нет в базе данных
Трек 5 нет в базе данных
Трек 6 нет в базе данных
Трек 7 нет в базе данных
Трек 8 нет в базе данных
Трек 9 нет в базе данных
Трек 10 нет в базе данных
Ни одного трека нет в базе AccurateRip

Конец отчёта
...апосля: скорее всего просто в вашем EAC не настроено обращение к базе AccurateRip,
имхо только так может быть, что вашего рипа, сделанного ранее, в этой базе не может быть, такой вот каламбурчик

fullmoon1

Top Seed 01* 40r

Стаж: 10 лет 7 месяцев

Сообщений: 175

flag

fullmoon1 · 20-Мар-10 09:37 (спустя 1 день 16 часов)

greybura
Дайте ссылочку как настроить. Настрою на будущее.

greybura

Top Seed 01* 40r

Стаж: 9 лет 9 месяцев

Сообщений: 414

flag

greybura · 20-Мар-10 15:53 (спустя 6 часов)

Насколько знаю, этот пункт находится в графе EAC, далее настройки базы и далее - моя картинка,
вообщем там, где обведено зачеркнутое мыло, надо написать свое реально существующее и
ниже соответственно адрес базы:
скрытый текст

greybura

Top Seed 01* 40r

Стаж: 9 лет 9 месяцев

Сообщений: 414

flag

greybura · 20-Мар-10 23:25 (спустя 7 часов)

Ну тагды ой...
Может инета не было в момент рипания?
Я уж и не знаю чего гадать... тут видно нужен мозговой штурм...
Было бы в конечном счёте интересно - в чём суть.
Неведение тяготит.

pavilionmx70

Стаж: 8 лет 4 месяца

Сообщений: 499

flag

pavilionmx70 · 23-Май-10 23:47 (спустя 2 месяца 4 дня)

Thanks a lot. Great upload, thanks for sharing.

Sakagari

Стаж: 7 лет 9 месяцев

Сообщений: 103

flag

Sakagari · 14-Июл-18 18:09 (спустя 8 лет 1 месяц, ред. 23-Июл-18 13:48)

Спасибо.

metalmaxim 1

Стаж: 9 лет 5 месяцев

Сообщений: 100

flag

metalmaxim 1 · 15-Июл-18 05:43 (спустя 11 часов)

Раздайте пожалуйста
 
All rights reserved © 2017-2018
Loading...
Error