Карточный Домик / House of Cards / Сезон: 2 / Серии: 1-13 из 13 (Джеймс Фоули, Карл Франклин, Аллен Култер) [2014, США, драма, BDRip 1080p] MVO (Первый канал) + Original + Subs (Rus, Eng)

Статистика раздачи
Размер:  88.76 GB   |   Зарегистрирован:  1 год 11 месяцев   |   .torrent скачан:  6,290 раз
Сиды:  22   Личи:  2
Автор
Сообщение

CEBEPu2D

Top Loader 04* 1TB

Стаж: 8 лет 11 месяцев

Сообщений: 636

flag

CEBEPu2D · 20-Сен-16 19:37 (1 год 11 месяцев назад, ред. 23-Янв-17 21:39)

 


Карточный Домик / House of Cards

Год выпуска: 2014
Страна: США
Жанр: Драма
Продолжительность: ~ 00:43:00
Перевод: Профессиональный (многоголосый закадровый) Первый канал
Режиссёр: Джеймс Фоули, Карл Франклин, Аллен Култер
В ролях: Кевин Спейси, Робин Райт, Кейт Мара, Кори Столл, Майкл Келли, Сакина Джэффри, Кристен Коннолли, Майкл Гилл, Нэйтан Дарроу, Себастьян Аркелус
Описание: «У нас было будущее, пока ты не начала рушить его», - так заканчивается тизер новой главы политической драмы. Напряжение в связи с грядущими выборами, новые убийства, дебаты, конфликты. И наконец, главная интрига, заставившая зрителей нервничать в финале третьего сезона, должна быть раскрыта. Сможет ли звездная пара Андервуд наладить отношения или борьба c внешними врагами пополнится внутренним противостоянием?
Релизер и работа со звуком: АКТЕР aka CEBEPu2D
Рип от NTb
Работа с сабами: qqss44
За исходник звука и сабов: спасибо Nez-у
Озвучка: Первый канал
Сохранены оригинальные главы как на Blu-ray.
Все раздачи сериала

Качество: BDRip 1080p
Формат: MKV
Видео: H.264, 1920x960, 23.976 fps, ~16000 kbps, ~0.362 bit/pixel
Аудио Rus: AC3, 48 kHz, 6 ch, 640 kbps |Первый канал|
Аудио Eng: DTS 48 kHz, 6 ch, 1509 kbps |Original|
Субтитры: русские, английские

MediaInfo
Полное имя : E:\Loading\House.Of.Cards.S02.Bdrip.1080p.by.AKTEP\House.Of.Cards.S02E08.Bdrip.1080p.by.AKTEP.mkv
Формат : Matroska
Версия формата : Version 4 / Version 2
Размер файла : 6,45 Гбайт
Продолжительность : 47 м.
Общий поток : 19,6 Мбит/сек
Дата кодирования : UTC 2016-08-22 17:44:01
Программа кодирования : mkvmerge v6.2.0 ('Promised Land') built on Apr 28 2013 12:22:01
Библиотека кодирования : libebml v1.3.0 + libmatroska v1.4.0
Видео
Идентификатор : 1
Формат : AVC
Формат/Информация : Advanced Video Codec
Профиль формата : High@L4.1
Параметр CABAC формата : Да
Параметр ReFrames формата : 4 кадра
Идентификатор кодека : V_MPEG4/ISO/AVC
Продолжительность : 47 м.
Битрейт : 17,1 Мбит/сек
Ширина : 1920 пикселей
Высота : 960 пикселей
Соотношение сторон : 2,000
Режим частоты кадров : Постоянный
Частота кадров : 23,976 кадра/сек
Цветовое пространство : YUV
Субдискретизация насыщенности : 4:2:0
Битовая глубина : 8 бит
Тип развёртки : Прогрессивная
Бит/(Пиксели*Кадры) : 0.386
Размер потока : 5,62 Гбайт (87%)
Библиотека кодирования : x264 core 142 r2431 ac76440
Настройки программы : cabac=1 / ref=4 / deblock=1:-3:-3 / analyse=0x3:0x133 / me=umh / subme=10 / psy=1 / psy_rd=1.03:0.00 / mixed_ref=1 / me_range=48 / chroma_me=1 / trellis=2 / 8x8dct=1 / cqm=0 / deadzone=21,11 / fast_pskip=1 / chroma_qp_offset=-2 / threads=6 / lookahead_threads=1 / sliced_threads=0 / nr=0 / decimate=1 / interlaced=0 / bluray_compat=0 / constrained_intra=0 / bframes=8 / b_pyramid=2 / b_adapt=2 / b_bias=0 / direct=3 / weightb=1 / open_gop=0 / weightp=2 / keyint=250 / keyint_min=23 / scenecut=40 / intra_refresh=0 / rc_lookahead=150 / rc=crf / mbtree=0 / crf=17.0 / qcomp=0.78 / qpmin=0 / qpmax=69 / qpstep=4 / vbv_maxrate=50000 / vbv_bufsize=62500 / crf_max=0.0 / nal_hrd=none / filler=0 / ip_ratio=1.20 / pb_ratio=1.10 / aq=1:0.70 / zones=0,2295,crf=13.5/11950,17889,crf=14.5/25666,28257,crf=14.5/37790,45755,crf=14.5/49955,51284,crf=14/63134,64365,crf=14.5
Язык : English
Default : Да
Forced : Нет
Аудио #1
Идентификатор : 2
Формат : AC-3
Формат/Информация : Audio Coding 3
Расширение режима : CM (complete main)
Параметр Endianness формата : Big
Идентификатор кодека : A_AC3
Продолжительность : 47 м.
Вид битрейта : Постоянный
Битрейт : 640 Кбит/сек
Каналы : 6 каналов
Расположение каналов : Front: L C R, Side: L R, LFE
Частота : 48,0 КГц
Битовая глубина : 16 бит
Метод сжатия : С потерями
Размер потока : 216 Мбайт (3%)
Язык : Russian
Default : Да
Forced : Нет
Аудио #2
Идентификатор : 3
Формат : DTS
Формат/Информация : Digital Theater Systems
Режим : 16
Параметр Endianness формата : Big
Идентификатор кодека : A_DTS
Продолжительность : 47 м.
Вид битрейта : Постоянный
Битрейт : 1509 Кбит/сек
Каналы : 6 каналов
Расположение каналов : Front: L C R, Side: L R, LFE
Частота : 48,0 КГц
Битовая глубина : 24 бит
Метод сжатия : С потерями
Размер потока : 509 Мбайт (8%)
Язык : English
Default : Нет
Forced : Нет
Текст #1
Идентификатор : 4
Формат : UTF-8
Идентификатор кодека : S_TEXT/UTF8
Идентификатор кодека/Информация : UTF-8 Plain Text
Язык : Russian
Default : Да
Forced : Нет
Текст #2
Идентификатор : 5
Формат : UTF-8
Идентификатор кодека : S_TEXT/UTF8
Идентификатор кодека/Информация : UTF-8 Plain Text
Язык : English
Default : Нет
Forced : Нет
Меню
00:00:00.000 : en:Chapter 01
00:01:36.387 : en:Chapter 02
00:09:39.036 : en:Chapter 03
00:17:50.360 : en:Chapter 04
00:25:43.708 : en:Chapter 05
00:35:38.719 : en:Chapter 06
00:44:45.432 : en:Chapter 07
Скриншоты

Обязательно к просмотру:
Карточный Домик / House of Cards 2 сезон BDRip 1080p
Карточный Домик / House of Cards 4 сезон BDRip 1080p
Доктор Хаус / House M.D. 2 сезон Blu-Ray Remux 1080p
Доктор Хаус / House M.D. 3 сезон Blu-Ray Remux 1080р
PS убедительная просьба скачавших оставаться на раздаче подольше, желательно вечно

Зарегистрирован:
  • 20-Сен-16 19:37
  • Скачан: 6,290 раз

Скачать .torrent

113 KB

Тип: обычная
Статус: проверено
Размер: 88.76 GB  ·  magnet7B314209D0DDCF064343777324780701E881D8DE
  • Свернуть поддиректории
  • Развернуть
  • Переключить
  • Увел./умен. окно
загружается...
Мои раздачи 1080p

Китайский летчик - Схера Ли
Человек культурен настолько, насколько он способен понять кошку.
Сражаюсь с добром за все человечество

Мандифик

Стаж: 8 лет 7 месяцев

Сообщений: 72

flag

Мандифик · 03-Янв-17 11:20 (спустя 3 месяца 12 дней)

В шапке написано, что озвучка Первый канал.
В описании - Amedia.
Так какой же на самом деле?

CEBEPu2D

Top Loader 04* 1TB

Стаж: 8 лет 11 месяцев

Сообщений: 636

flag

CEBEPu2D · 23-Янв-17 21:39 (спустя 20 дней)

https://www.youtube.com/watch?v=5xUZKyPBaR0 тизер 5 сезона
Мои раздачи 1080p

Китайский летчик - Схера Ли
Человек культурен настолько, насколько он способен понять кошку.
Сражаюсь с добром за все человечество

ABBM

Стаж: 9 лет 3 месяца

Сообщений: 61

flag

ABBM · 18-Июл-18 12:34 (спустя 1 год 5 месяцев, ред. 23-Июл-18 14:39)

озвучка не такая, как в первом сезоне, но по заказу первого канала.
 
All rights reserved © 2017-2018
Loading...
Error