Форс-мажоры / Suits / Сезон: 8 / Серии: 1-9 из 16 (Антон Кроппер, Кевин Брэй, Майкл Смит) [2018, США, драма, комедия, WEB-DLRip] MVO (Jaskier) + Original

Статистика раздачи
Размер:  4.45 GB   |   Зарегистрирован:  5 дней   |   .torrent скачан:  295 раз
Сиды:  13   Личи:  27
Автор
Сообщение

oqlpo

Стаж: 1 год 1 месяц

Сообщений: 208


oqlpo · 21-Июл-18 19:43 (1 месяц 30 дней назад, ред. 15-Сен-18 22:33)

 

Форс-мажоры / Suits
Год выпуска: 2018
Страна: США
Жанр: драма, комедия
Продолжительность: ~ 00:44:00
Перевод: Профессиональный (многоголосый закадровый) | Jaskier
Режиссёр: Антон Кроппер, Кевин Брэй, Майкл Смит
В ролях: Меган Маркл, Гэбриел Махт, Рик Хоффман, Джина Торрес, Патрик Дж. Адамс, Сара Рафферти, Кристен Буш, Джули Энн Эмери, Хлоя Кмарада, Лейн Ретмер, Джасинда Бэрретт
Описание: Убегая после неудачной попытки сбыта наркотиков, юрист-самоучка Майк Росс, выдающий себя за выпускника Гарварда, попадает на собеседование к одному из лучших адвокатов по сделкам Нью-Йорка Харви Спектру. Устав от скучных соискателей, мечтающих «верой и правдой служить букве закона», Харви рискует и нанимает Майка: у парня врожденный талант и фотографическая память. Так рождается один из самых неоднозначных, но, в то же время, и самых блестящих тандемов законников на Манхэттене.

Качество: WEB-DLRip
Формат: AVI
Видео: XviD, ~ 1400 kbps, 720x400, 23.976 fps
Аудио 1: MP3, 48,0 КГц, 2 ch, 128 kbps - RUS
Аудио 2: MP3, 48,0 КГц, 2 ch, 128 kbps - ENG
Субтитры: отсутствуют
Реклама: аудио, два раза в начале и в конце по 13 секунд
Ссылка на предыдущие и альтернативные раздачи
MediaInfo
Код:
Общее
Формат                                   : AVI
Формат/Информация                        : Audio Video Interleave
Размер файла                             : 511 Мбайт
Продолжительность                        : 42 м.
Общий поток                              : 1670 Кбит/сек
Программа кодирования                    : VirtualDubMod 1.5.10.3 | www.virtualdub-fr.org || (build 2550/release)
Библиотека кодирования                   : VirtualDubMod build 2550/release
Видео
Идентификатор                            : 0
Формат                                   : MPEG-4 Visual
Профиль формата                          : Advanced Simple@L5
Параметр BVOP формата                    : 2
Параметр QPel формата                    : Нет
Параметр GMC формата                     : Без точки перехода
Параметр матрицы формата                 : Выборочная
Идентификатор кодека                     : XVID
Идентификатор кодека/Подсказка           : XviD
Продолжительность                        : 42 м.
Битрейт                                  : 1400 Кбит/сек
Ширина                                   : 720 пикселей
Высота                                   : 400 пикселей
Соотношение сторон                       : 16:9
Частота кадров                           : 23,976 (23976/1000) кадра/сек
Цветовое пространство                    : YUV
Субдискретизация насыщенности            : 4:2:0
Битовая глубина                          : 8 бит
Тип развёртки                            : Прогрессивная
Метод сжатия                             : С потерями
Бит/(Пиксели*Кадры)                      : 0.203
Размер потока                            : 428 Мбайт (84%)
Библиотека кодирования                   : XviD 73
Аудио #1
Идентификатор                            : 1
Формат                                   : MPEG Audio
Версия формата                           : Version 1
Профиль формата                          : Layer 3
Режим                                    : Joint stereo
Расширение режима                        : MS Stereo
Идентификатор кодека                     : 55
Идентификатор кодека/Подсказка           : MP3
Продолжительность                        : 42 м.
Вид битрейта                             : Постоянный
Битрейт                                  : 128 Кбит/сек
Каналы                                   : 2 канала
Частота                                  : 48,0 КГц
Метод сжатия                             : С потерями
Размер потока                            : 39,2 Мбайт (8%)
Выравнивание                             : Соединение по промежуткам
Продолжительность промежутка             : 42  мс. (1,00 видеокадр)
Время предзагрузки промежутка            : 504  мс.
Аудио #2
Идентификатор                            : 2
Формат                                   : MPEG Audio
Версия формата                           : Version 1
Профиль формата                          : Layer 3
Режим                                    : Joint stereo
Расширение режима                        : MS Stereo
Идентификатор кодека                     : 55
Идентификатор кодека/Подсказка           : MP3
Продолжительность                        : 42 м.
Вид битрейта                             : Постоянный
Битрейт                                  : 128 Кбит/сек
Каналы                                   : 2 канала
Частота                                  : 48,0 КГц
Метод сжатия                             : С потерями
Размер потока                            : 39,2 Мбайт (8%)
Выравнивание                             : Соединение по промежуткам
Продолжительность промежутка             : 42  мс. (1,00 видеокадр)
Время предзагрузки промежутка            : 504  мс.
Скриншоты
Раздача ведется путем добавления новых серий
Когда раздача ведётся путём добавления новых серий, при каждом добавлении создётся новый торрент. Чтобы начать докачку новой серии, пользователям необходимо сделать следующее:
(1) остановить скачивание,
(2) удалить старый торрент у себя из клиента (старые серии удалять не надо),
(3) скачать новый торрент и запустить его у себя в клиенте вместо старого, при этом указать клиенту путь в старую папку, куда и должно происходить скачивание новых серий.
Ваш клиент при этом должен произвести хеширование (проверку) старой папки (если не производит сам - помогите ему сделать это), и будет докачивать только те серии, которых у вас ещё нет. Старые серии при этом не удаляются, а продолжают раздаваться!
Eсли вы уже удалили старые серии, то предотвратить повторную закачку старых серий можно, отжав галочку в соответсвующих местах при запуске нового торрента. По возможности, желательно не удалять старые серии как можно дольше, чтобы релизёр не столько продолжал раздавать старые серии, а смог сконцентрироваться на новых.
Зарегистрирован:
  • 15-Сен-18 22:33
  • Скачан: 295 раз

Скачать .torrent

23 KB

Тип: обычная
Статус: T временная
Размер: 4.45 GB  ·  magnetF7773E4DC92DCEE584DE1D7C7317EA3235AF4456
  • Свернуть поддиректории
  • Развернуть
  • Переключить
  • Увел./умен. окно
загружается...

Fight4Fun

Стаж: 8 лет 3 месяца

Сообщений: 25

flag

Fight4Fun · 21-Июл-18 20:36 (спустя 53 мин.)

Да как так то, озвучка выходит раньше сабов

bot · 21-Июл-18 21:16 (спустя 39 мин.)

Тема была перенесена из форума Зарубежные сериалы в форум Новинки и сериалы в стадии показа
Celta88
 

Celta88

Помощник модератора

Стаж: 9 лет 4 месяца

Сообщений: 4195

flag

Celta88 · 21-Июл-18 21:16 (спустя 40 мин.)

Цитата:
Реклама: аудио, два раза в начале и в конце по 13 секунд
ПРАВИЛО О РЕКЛАМЕ (01.11.2016)
T временная
Правила раздела Зарубежные сериалы
Методы обхода блокировки
Чемпионат Мира по футболу 2018

Если в моих раздачах отсутствуют сиды - напишите об этом в комментариях!
 
All rights reserved © 2017-2018
Loading...
Error