Элементарно / Elementary / Сезон: 6 / Серии: 1-21 из 21 (Джон Полсон, Эндрю Бернштейн, Сет Манн) [2018, США, Драма, криминал, детектив, WEBRip] MVO (Jaskier) + Original

Статистика раздачи
Размер:  11.18 GB   |   Зарегистрирован:  4 дня   |   .torrent скачан:  794 раза
Сиды:  11   Личи:  21
Автор
Сообщение

sandora1

Стаж: 4 года 9 месяцев

Сообщений: 235

flag

sandora1 · 03-Май-18 00:35 (4 месяца 21 день назад, ред. 19-Сен-18 23:48)

 

Элементарно / Elementary
Год выпуска: 2018
Страна: США
Жанр: Драма, криминал, детектив
Продолжительность: 00:45:00
Перевод: Профессиональный (многоголосый закадровый) | Jaskier

Режиссёр: Джон Полсон, Эндрю Бернштейн, Сет Манн
В ролях: Джонни Ли Миллер, Люси Лью, Эйдан Куинн, Джон Майкл Хилл, Натали Дормер, Ато Эссонда, Линда Эмонд, Майкл Ден Деккер, Винни Джонс, Эрик Дженсен
Описание: Никаких каминов, скрипок и лондонских туманов. Америка, наше время. Холмс - не только гениальный сыщик, но и бывший наркоман. Ватсон - не просто женщина-доктор с пикантной внешностью Люси Лиу, но и неплохой аналитик. Вместе они могут горы свернуть. Но сейчас успешный детективный дуэт на грани распада. Смогут ли Холмс и Ватсон друг без друга?
/ /
Качество: WEBRip
Формат: AVI
Видео: XviD, ~ 1500 kbps, 720x400 (16:9), 23.976 fps
Аудио 1: MP3, 48,0 КГц, 2 ch, 128 kbps - Rus
Аудио 2: MP3, 48,0 КГц, 2 ch, 128 kbps - Eng
Реклама: Присутствует звуковая (два раза в начале и конце по 10 сек.)
Ссылка на предыдущие и альтернативные раздачи
Релиз
Переведено и озвучено: студией Jaskier
MediaInfo
Код:
Общее
Полное имя                               : F:\Jaskier\Elementary Season 6 (WEBRip l 400p l Jaskier)\Elementary.S06E01.WEBRip.Jaskier.avi
Формат                                   : AVI
Формат/Информация                        : Audio Video Interleave
Размер файла                             : 519 Мбайт
Продолжительность                        : 40 м. 33 с.
Общий поток                              : 1789 Кбит/сек
Программа кодирования                    : VirtualDubMod 1.5.10.3 | www.virtualdub-fr.org || (build 2550/release)
Библиотека кодирования                   : VirtualDubMod build 2550/release
Видео
Идентификатор                            : 0
Формат                                   : MPEG-4 Visual
Профиль формата                          : Advanced Simple@L5
Настройки формата                        : BVOP2
Параметр BVOP формата                    : 2
Параметр QPel формата                    : Нет
Параметр GMC формата                     : Без точки перехода
Параметр матрицы формата                 : Default (MPEG)
Идентификатор кодека                     : XVID
Идентификатор кодека/Подсказка           : XviD
Продолжительность                        : 40 м. 33 с.
Битрейт                                  : 1519 Кбит/сек
Ширина                                   : 720 пикселей
Высота                                   : 400 пикселей
Соотношение сторон                       : 16:9
Частота кадров                           : 23,976 (24000/1001) кадра/сек
Цветовое пространство                    : YUV
Субдискретизация насыщенности            : 4:2:0
Битовая глубина                          : 8 бит
Тип развёртки                            : Прогрессивная
Метод сжатия                             : С потерями
Бит/(Пиксели*Кадры)                      : 0.220
Размер потока                            : 441 Мбайт (85%)
Библиотека кодирования                   : XviD 1.2.1 (UTC 2008-12-04)
Аудио #1
Идентификатор                            : 1
Формат                                   : MPEG Audio
Версия формата                           : Version 1
Профиль формата                          : Layer 3
Настройки формата                        : Joint stereo / MS Stereo
Идентификатор кодека                     : 55
Идентификатор кодека/Подсказка           : MP3
Продолжительность                        : 40 м. 33 с.
Вид битрейта                             : Постоянный
Битрейт                                  : 128 Кбит/сек
Каналы                                   : 2 канала
Частота                                  : 48,0 КГц
Частота кадров                           : 41,667 кадра/сек (1152 SPF)
Метод сжатия                             : С потерями
Размер потока                            : 37,1 Мбайт (7%)
Выравнивание                             : Соединение по промежуткам
Продолжительность промежутка             : 42  мс. (1,00 видеокадр)
Время предзагрузки промежутка            : 504  мс.
Библиотека кодирования                   : LAME3.100
Настройки программы                      : -m j -V 4 -q 3 -lowpass 17 -b 128
Аудио #2
Идентификатор                            : 2
Формат                                   : MPEG Audio
Версия формата                           : Version 1
Профиль формата                          : Layer 3
Настройки формата                        : Joint stereo / MS Stereo
Идентификатор кодека                     : 55
Идентификатор кодека/Подсказка           : MP3
Продолжительность                        : 40 м. 33 с.
Вид битрейта                             : Постоянный
Битрейт                                  : 128 Кбит/сек
Каналы                                   : 2 канала
Частота                                  : 48,0 КГц
Частота кадров                           : 41,667 кадра/сек (1152 SPF)
Метод сжатия                             : С потерями
Размер потока                            : 37,1 Мбайт (7%)
Выравнивание                             : Соединение по промежуткам
Продолжительность промежутка             : 42  мс. (1,00 видеокадр)
Время предзагрузки промежутка            : 504  мс.
Библиотека кодирования                   : LAME3.100
Настройки программы                      : -m j -V 4 -q 3 -lowpass 17 -b 128
Скриншоты
Зарегистрирован:
  • 19-Сен-18 23:48
  • Скачан: 794 раза

Скачать .torrent

58 KB

Тип: обычная
Статус: T временная
Размер: 11.18 GB  ·  magnet639278DB5F21D6B7103A72CADBFFA749E89F1601
  • Свернуть поддиректории
  • Развернуть
  • Переключить
  • Увел./умен. окно
загружается...

Celta88

Помощник модератора

Стаж: 9 лет 4 месяца

Сообщений: 4218

flag

Celta88 · 03-Май-18 00:40 (спустя 5 мин.)

Реклама: Присутствует звуковая (два раза в начале и конце по 10 сек.)
ПРАВИЛО О РЕКЛАМЕ (01.11.2016)
T временная
Правила раздела Зарубежные сериалы
Методы обхода блокировки
Чемпионат Мира по футболу 2018

Если в моих раздачах отсутствуют сиды - напишите об этом в комментариях!

bot · 03-Май-18 00:40 (спустя 10 сек.)

Тема была перенесена из форума Зарубежные сериалы в форум Новинки и сериалы в стадии показа
Celta88
 

erica_cuzminschi

Стаж: 7 лет 11 месяцев

Сообщений: 203

flag

erica_cuzminschi · 04-Май-18 13:41 (спустя 1 день 13 часов)

Wow! Шерлок новый сезон!

Дримушка

Стаж: 10 лет 1 месяц

Сообщений: 38

flag

Дримушка · 16-Авг-18 14:15 (спустя 3 месяца 12 дней)

Большое спасибо! ))

Nanvel

VIP (Заслуженный)

Стаж: 11 лет

Сообщений: 4264

flag

Nanvel · 19-Авг-18 13:31 (спустя 2 дня 23 часа)

Реклама немного мешает просмотру, но зато оперативное обновление.

Геварыч27

Стаж: 8 месяцев

Сообщений: 3

flag

Геварыч27 · 01-Сен-18 16:43 (спустя 13 дней)

Спасибо!

tehnar52

Стаж: 4 года 10 месяцев

Сообщений: 6

flag

tehnar52 · 20-Сен-18 15:09 (спустя 18 дней)

21 из 21! Спасибо.

Albusiya

Стаж: 8 лет 7 месяцев

Сообщений: 1

flag

Albusiya · 20-Сен-18 22:15 (спустя 7 часов)

Спасибо!

bot · 21-Сен-18 18:40 (спустя 20 часов)

Тема была перенесена из форума Новинки и сериалы в стадии показа в форум Сериалы США и Канады
Wentworth_Miller
 
 
All rights reserved © 2017-2018
Loading...
Error