(Melodic Hard Rock) David Readman - David Readman (Экс-вокалист Pink Cream 69) - 2007, APE (image+.cue), lossless

Статистика раздачи
Размер:  486.6 MB   |   Зарегистрирован:  9 лет 5 месяцев   |   .torrent скачан:  1,494 раза
Сиды:  1   Личи:  1
Автор
Сообщение

GriffonNest

Top Seed 03* 160r

Стаж: 12 лет

Сообщений: 1308

GriffonNest · 29-Мар-09 13:48 (9 лет 5 месяцев назад, ред. 29-Мар-09 15:22)

 

David Readman - David Readman (Экс-вокалист Pink Cream 69)
Жанр: Melodic Hard Rock
Год выпуска диска: 2007
Производитель диска: Frontiers, Italy
Аудио кодек: APE
Тип рипа: image+.cue
Битрейт аудио: lossless
Продолжительность: 56:32
Трэклист:
1. Without You
2. Evil Combination
3. Take These Tears
4. Don't Let It Slip Away
5. No Peace For The Wicked
6. Long Way To Heaven
7. Wild In The City
8. Gentle Touch
9. Prisoner Of Shame
10. New Messiah
11. Over The Ocean
12. Love In Vain
+ Don't Let It Slip Away (bonus video track)
David Readman (vocals, guitar, keyboards)
Alex Beyrodt (guitar)
Gerald Sänger (guitar)
Tommy Denander (guitar)
Uwe Reitenauer (guitar)
Paul Logue (bass)
Eric Ragno (keyboards)
Günter Werno (keyboards)
Chris Schmidt (drums)
Dirk Bruinenberg (drums)
Лог ЕАС
Exact Audio Copy V0.99 prebeta 4 from 23. January 2008
EAC extraction logfile from 28. March 2009, 16:35
David Readman / David Readman
Used drive : HL-DT-STDVDRAM GSA-H10N Adapter: 2 ID: 0
Read mode : Secure
Utilize accurate stream : Yes
Defeat audio cache : Yes
Make use of C2 pointers : No
Read offset correction : 667
Overread into Lead-In and Lead-Out : No
Fill up missing offset samples with silence : Yes
Delete leading and trailing silent blocks : No
Null samples used in CRC calculations : Yes
Used interface : Installed external ASPI interface
Used output format : Internal WAV Routines
Sample format : 44.100 Hz; 16 Bit; Stereo
TOC of the extracted CD
Track | Start | Length | Start sector | End sector
---------------------------------------------------------
1 | 0:00.00 | 5:02.43 | 0 | 22692
2 | 5:02.43 | 5:19.31 | 22693 | 46648
3 | 10:21.74 | 4:50.58 | 46649 | 68456
4 | 15:12.57 | 4:41.61 | 68457 | 89592
5 | 19:54.43 | 3:52.04 | 89593 | 106996
6 | 23:46.47 | 4:41.11 | 106997 | 128082
7 | 28:27.58 | 4:28.12 | 128083 | 148194
8 | 32:55.70 | 4:45.51 | 148195 | 169620
9 | 37:41.46 | 3:55.00 | 169621 | 187245
10 | 41:36.46 | 4:56.74 | 187246 | 209519
11 | 46:33.45 | 4:41.29 | 209520 | 230623
12 | 51:14.74 | 5:17.58 | 230624 | 254456
13 | 59:04.57 | 7:00.61 | 265857 | 297417
Range status and errors
Selected range
Filename E:\David Readman.wav
Peak level 98.8 %
Range quality 100.0 %
Copy CRC 26C8D347
Copy OK
No errors occurred
End of status report
Videoclip "Dont Let it Slip Away"
Видеоклип "Dont Let it Slip Away"
Длительность: 4 мин 38 сек (00:04:38)
Файл: David Readman-Dont Let it Slip Away.mpg
Размер файла: 60.7 Mb
Видео
Разрешение: 640x480 (4/3)
Кадров в секунду: 29.970 fps
Битрейт: 1541 Kbps
Фактор качества: 0.17 b/px
Кодек: MPEG 2
Аудио
Количество каналов: 2
Частота дискретизации: 44100 Hz
Битрейт: 128 Kbps
Кодек: MPEG 1 Layer 2
Зарегистрирован:
  • 29-Мар-09 14:27
  • Скачан: 1,494 раза
Скачать .torrent через uBar.pro

Скачать .torrent

20 KB

Тип: обычная
Статус: проверено
Размер: 486.6 MB  ·  magnet8267623FCF1C919A319845EE87C98D5C2FEAD760
  • Свернуть поддиректории
  • Развернуть
  • Переключить
  • Увел./умен. окно
загружается...

Rock Live Now & Forever!

WmmW

Стаж: 11 лет 1 месяц

Сообщений: 36

flag

WmmW · 29-Мар-09 14:57 (спустя 1 час 9 мин.)

Всё как всегда...
Отличная публикация.
Отличная музыка.
И моё СПАСИБО!!!!

babylon63

Стаж: 9 лет 6 месяцев

Сообщений: 368

flag

babylon63 · 29-Мар-09 23:33 (спустя 8 часов)

Спасибо за Дэвида,отличный вокал,прекрасная музыка!Нет ли случаем альбома Андрея Андерсена,где Дэвид на вокале в том числе. В качестве нету нигде.

GriffonNest

Top Seed 03* 160r

Стаж: 12 лет

Сообщений: 1308

GriffonNest · 30-Мар-09 01:01 (спустя 1 час 27 мин.)

babylon63 писал(а):
Спасибо за Дэвида,отличный вокал,прекрасная музыка!Нет ли случаем альбома Андрея Андерсена,где Дэвид на вокале в том числе. В качестве нету нигде.
Зайди сюда, качни и приятного прослушивания:
http://SKYTRACKER.XYZ/viewtopic.php?t=1277616
Я хотел выложить, но нашёл по поиску Был бы повтор

Rock Live Now & Forever!

babylon63

Стаж: 9 лет 6 месяцев

Сообщений: 368

flag

babylon63 · 30-Мар-09 13:38 (спустя 12 часов)

Примите Уважаемый GriffonNest слова благодарностей !Спасибо огромное еще раз!
Я ведь поиском шуршал,выдает только в mp3,да и до этого сколько раз такие казусы случались,поиск видимо кривенький.Раз пошла такая пьянка,наберусь наглости задать еще пару вопросов-нигде не могу найти в лосях LEE AARON BODYROCK,DARBY MILLES, Crissy Steele.
Может что подскажете?

GriffonNest

Top Seed 03* 160r

Стаж: 12 лет

Сообщений: 1308

GriffonNest · 31-Мар-09 12:53 (спустя 23 часа)

babylon63 писал(а):
Примите Уважаемый GriffonNest слова благодарностей !Спасибо огромное еще раз!
Я ведь поиском шуршал,выдает только в mp3,да и до этого сколько раз такие казусы случались,поиск видимо кривенький.Раз пошла такая пьянка,наберусь наглости задать еще пару вопросов-нигде не могу найти в лосях LEE AARON BODYROCK,DARBY MILLES, Crissy Steele.
Может что подскажете?
Об этих командах, к сожалению, ничего сказать не могу

Rock Live Now & Forever!

MrAdlibitum

Стаж: 8 лет 1 месяц

Сообщений: 10

flag

MrAdlibitum · 31-Мар-11 12:20 (спустя 1 год 11 месяцев)

Долго качается... Написано 11 часов качаться будет,- жаль буду искать дальше...

19vovan70

Стаж: 9 лет 7 месяцев

Сообщений: 1111

flag

19vovan70 · 02-Апр-11 22:25 (спустя 2 дня 10 часов)

GriffonNest
Спасибо большое! Отличный альбом, как это я раньше его пропустил?

qazaqazaq666

Top Seed 01* 40r

Стаж: 10 лет 3 месяца

Сообщений: 1904

flag

qazaqazaq666 · 24-Май-11 13:15 (спустя 1 месяц 21 день)

GriffonNest
David Readman действующий вокалист Pink Cream 69, и, по-моему, никогда группу не покидал.
Странный факт, но человек, который не понимает того, о чём вы ему говорите, считает тупым не себя, а вас.
РУССКОЯЗЫЧНЫЙ (!) КАЧЕСТВЕННЫЙ (!) ПРОГ-АРТ РОК: БолоБэнд (BoloBand / Сергей Болотников) - Сбой хамелеона - 2017, FLAC

Flegg19

Стаж: 8 лет 9 месяцев

Сообщений: 19

flag

Flegg19 · 03-Ноя-11 11:34 (спустя 5 месяцев 9 дней)

qazaqazaq666 писал(а):
GriffonNest
David Readman действующий вокалист Pink Cream 69, и, по-моему, никогда группу не покидал.
Совершенно верно. Это не экс вокалист. Экс вокалист группы - Энди Дерис.

lorika01

Стаж: 7 лет 10 месяцев

Сообщений: 152

flag

lorika01 · 20-Ноя-17 18:39 (спустя 6 лет)

Послушал и без раздумий удалил. Нудная однотипная музыка. За раздачу, естественно, спасибо.

a.kaisser

Стаж: 9 лет 11 месяцев

Сообщений: 21

flag

a.kaisser · 16-Авг-18 05:17 (спустя 8 месяцев)

Увы.Ни одного сида.Висяк! Помогите скачать.Спасибо!
 
All rights reserved © 2017-2018
Loading...
Error