Britney Spears – Live From Miami [2004, Музыкальное видио, HDTVRip]

Статистика раздачи
Размер:  2.68 GB   |   Зарегистрирован:  8 лет 2 месяца   |   .torrent скачан:  1,633 раза
Сиды:  3
Автор
Сообщение

romaninjo

Стаж: 8 лет 7 месяцев

Сообщений: 2

flag

romaninjo · 06-Июл-10 19:14 (8 лет 2 месяца назад, ред. 07-Июл-10 22:19)

 

Britney Spears – Live From Miami
Год выпуска: 2004
Страна: США
Жанр: Музыкальное видио
Продолжительность: 1:32:09
Перевод: Не требуется
Описание: Трек лист:
1. "Toxic"
2. "Overprotected" Darkchild Remix
3. "Boys"
4. "Showdown"
5. "...Baby One More Time" Cabaret
6. "Oops!... I Did It Again" Cabaret
7. "(You Drive Me) Crazy" Cabaret
8. "Everytime"
9. "The Hook Up"
10. "I'm A Slave 4 U"
11. "Shadow"
12. "Touch Of My Hand"
13. "Breathe On Me"
14. "Outrageous"
15. "(I Got That) Boom Boom"
16. "Me Against The Music" Remix
Источник: HDTVRip
Видео: MP4 H.264 1264х720 29fps 4000kbps
Аудио1: 2ch AAC 48khz 164kbps
Скриншоты







Медиаинфо
General
Complete name : /Volumes/Media 1/+atvVideo/Britney Spears Live In Miami Hdtv.m4v
Format : MPEG-4
Format profile : Base Media / Version 2
Codec ID : mp42
File size : 2.68 GiB
Duration : 1h 32mn
Overall bit rate : 4 170 Kbps
Movie name : Britney Spears Live In Miami
Performer : Britney Spears
Genre : Music
Encoded date : 2004
Tagged date : UTC 2010-07-06 18:54:22
Writing application : HandBrake 0.9.4 2009112300
Cover : Yes
desc : Концерт Britney Spears The Onyx Hotel Tour/ Бритни Спирс Оникс Отель Тур, Живой концерт в Майами
Video
ID : 1
Format : AVC
Format/Info : Advanced Video Codec
Format profile : Main@L3.1
Format settings, CABAC : No
Format settings, ReFrames : 2 frames
Codec ID : avc1
Codec ID/Info : Advanced Video Coding
Duration : 1h 32mn
Bit rate mode : Variable
Bit rate : 4 000 Kbps
Width : 1 264 pixels
Height : 720 pixels
Display aspect ratio : 16:9
Frame rate mode : Variable
Frame rate : 29.970 fps
Minimum frame rate : 14.983 fps
Maximum frame rate : 29.970 fps
Color space : YUV
Chroma subsampling : 4:2:0
Bit depth : 8 bits
Scan type : Progressive
Bits/(Pixel*Frame) : 0.147
Stream size : 2.57 GiB (96%)
Writing library : x264 core 79 r1347 5ddd61b
Encoding settings : cabac=0 / ref=1 / deblock=1:0:0 / analyse=0x1:0x111 / me=umh / subme=5 / psy=1 / psy_rd=0.0:0.0 / mixed_ref=0 / me_range=16 / chroma_me=1 / trellis=0 / 8x8dct=0 / cqm=0 / deadzone=21,11 / chroma_qp_offset=0 / threads=3 / nr=0 / decimate=1 / mbaff=0 / constrained_intra=0 / bframes=3 / b_pyramid=0 / b_adapt=1 / b_bias=0 / direct=1 / wpredb=0 / wpredp=2 / keyint=300 / keyint_min=30 / scenecut=40 / rc_lookahead=40 / rc=2pass / mbtree=1 / bitrate=4000 / ratetol=1.0 / qcomp=0.60 / qpmin=10 / qpmax=51 / qpstep=4 / cplxblur=20.0 / qblur=0.5 / ip_ratio=1.40 / aq=1:1.00
Encoded date : UTC 2010-07-06 11:26:57
Tagged date : UTC 2010-07-06 14:11:15
Color primaries : BT.709-5, BT.1361, IEC 61966-2-4, SMPTE RP177
Transfer characteristics : BT.709-5, BT.1361
Matrix coefficients : BT.709-5, BT.1361, IEC 61966-2-4 709, SMPTE RP177
Audio
ID : 2
Format : AAC
Format/Info : Advanced Audio Codec
Format version : Version 4
Format profile : LC
Format settings, SBR : No
Codec ID : 40
Duration : 1h 32mn
Bit rate mode : Variable
Bit rate : 164 Kbps
Maximum bit rate : 228 Kbps
Channel(s) : 2 channels
Channel positions : Front: L R
Sampling rate : 48.0 KHz
Stream size : 108 MiB (4%)
Encoded date : UTC 2010-07-06 11:26:57
Tagged date : UTC 2010-07-06 18:54:22
Зарегистрирован:
  • 06-Июл-10 19:14
  • Скачан: 1,633 раза

Скачать .torrent

27 KB

Тип: обычная
Статус: проверено
Размер: 2.68 GB  ·  magnetEF851159CBF585EC1A800293E0C23E4F06B9DE31
  • Свернуть поддиректории
  • Развернуть
  • Переключить
  • Увел./умен. окно
загружается...
Apple TV gives you access to an easy-to-navigate world of entertainment. Rent HD movies. Buy HD movies and get iTunes Extras. Buy HD TV shows. Listen to your iTunes music and Internet radio. Even show off your photos. Connect one HDMI cable and, just like that, your TV becomes more than just a TV.

jhonny2

Стаж: 11 лет 6 месяцев

Сообщений: 5103


jhonny2 · 07-Июл-10 07:41 (спустя 12 часов)

romaninjo
Добавьте медиаинфо подтверждающее наличие прописанных тегов
  1. MkvToMp4 - перепаковка mkv в m4v для iPhone, iPad, ATV
  2. Requiem - снять защиту DRM с фильмов купленных в iTunes

Mariannka

Стаж: 11 лет

Сообщений: 397

flag

Mariannka · 12-Июл-10 01:24 (спустя 4 дня)

Это что лучше чем тут было на 6 гб веса хтдв этого концерта?

iPawner

Стаж: 9 лет 7 месяцев

Сообщений: 203


iPawner · 18-Июл-10 11:01 (спустя 6 дней)

Цитата:
Frame rate : 29.970 fps
Разве Apple TV такой фпс осилит?

iMACsimka

Стаж: 9 лет 4 месяца

Сообщений: 87

flag

iMACsimka · 05-Апр-12 11:34 (спустя 1 год 8 месяцев)

как то качество не впечатлило, скачал, посмотрел минут 5 и удалил...вобщем каждому своё
 
All rights reserved © 2017-2018
Loading...
Error