Генрих VIII / Henry VIII. Mind of a Tyrant / Серии: 1-4 (4) (Дэвид Сингтон / David Sington) [2009, документальный, HDTVRip 720p] DVO (СВ-Дубль по заказу ГТРК "Культура") + Original

Статистика раздачи
Размер:  6.27 GB   |   Зарегистрирован:  4 года 11 месяцев   |   .torrent скачан:  1,325 раз
Сиды:  1
Автор
Сообщение

HPotter

Top User 50

Стаж: 12 лет

Сообщений: 693

flag

HPotter · 01-Окт-13 18:18 (4 года 11 месяцев назад, ред. 01-Окт-13 23:51)

 

Генрих VIII / Henry VIII. Mind of a Tyrant
Год выпуска: 2009
Страна: Великобритания
Жанр: документальный
Продолжительность серии: ~ 48 мин
Перевод: Профессиональный (двухголосый, закадровый) - СВ-Дубль по заказу ГТРК "Культура"
Русские субтитры: нет
Режиссёр: Дэвид Сингтон / David Sington
Автор и ведущий: Дэвид Старки / David Starkey
Описание:
Принц
Более 500 лет назад в Вестминстерском аббатстве состоялась коронация восемнадцатилетнего юноши, нового короля Англии. Впоследствии он станет одним из самых одиозных монархов в истории. А тогда юноша был худощав, красив, элегантен, одарен музыкально и поэтически, рассудителен, обаятелен, обладал добрым нравом и женился по любви...
Воин
Молодой король Генрих VIII в первую очередь хотел стать тем, кем никогда не был его отец - идеальным благородным рыцарем, который добьется неувядаемой славы своими ратными подвигами.
Любовник
История Генриха VIII и Анны Болейн - один из величайших трагических любовных романов. Этот роман превратил Генриха из симпатичного, но заурядного, достигшего довольно малого, короля в тирана, изменившего нацию и оставившего глубочайший след в истории.
Тиран
В зрелые годы король Генрих VIII провел самую радикальную церковную реформу в истории английского христианства. Но в юности его вера была совершенно искренней и вполне традиционной. Что же поколебало веру Генриха в традиционный католицизм?
Список эпизодов:
Episode 01: Prince 1485-1509 (Принц)
Episode 02: Warrior 1509-1525 (Воин)
Episode 03: Lover 1526-1536 (Любовник)
Episode 04: Tyrant 1533–1547 (Тиран)

Доп. информация:
IMDb
Озвучка: СВ-Дубль по заказу ГТРК "Культура"
Звук: Незабудка
Рипы и сведение: HPotter
Код:
Источник: henry.mind.of.a.tyrant.s01e01-04.1920x1080i50.h264.dd51.ts thx  LoopGuru/USENET by BBCHD Nordic.
Henry.VIII.Mind.of.a.Tyrant.E01.720p.HDTV.x264-HPotter
Henry.VIII.Mind.of.a.Tyrant.E02.720p.HDTV.x264-HPotter
Henry.VIII.Mind.of.a.Tyrant.E03.720p.HDTV.x264-HPotter
Henry.VIII.Mind.of.a.Tyrant.E04.720p.HDTV.x264-HPotter
Качество: HDTVRip 720p
Формат: MKV
Видео кодек: H.264
Аудиокодек: AC3
Видео: MPEG-4 AVC / ~3963 kbps / 1280x720 / 25 fps / 16:9 / 0.172 bit/pixel / High Profile 4.1
Аудио #1: Russian / Dolby Digital 2.0, 48 kHz, 256 Kbps |СВ-Дубль по заказу ГТРК "Культура"|
Аудио #2: English / Dolby Digital 5.1, 48 kHz, 448 Kbps |Оригинал|
Ссылка на предыдущие и альтернативные раздачи
Скачать сэмпл
MI
General
Unique ID : 199274592356181711576516364315090782485 (0x95EAE3F504B1464E9832AFEF3C0C8915)
Complete name : \Henry.VIII.Mind.of.a.Tyrant.s01.720p.HDTV.x264-HPotter\Henry.VIII.Mind.of.a.Tyrant.E01.720p.HDTV.x264-HPotter.mkv
Format : Matroska
Format version : Version 4 / Version 2
File size : 1.55 GiB
Duration : 47mn 30s
Overall bit rate : 4 670 Kbps
Encoded date : UTC 2013-09-30 18:47:43
Writing application : mkvmerge v6.4.1 ('Omega Point') built on Sep 16 2013 22:05:10
Writing library : libebml v1.3.0 + libmatroska v1.4.1
Video
ID : 1
Format : AVC
Format/Info : Advanced Video Codec
Format profile : High@L4.1
Format settings, CABAC : Yes
Format settings, ReFrames : 4 frames
Codec ID : V_MPEG4/ISO/AVC
Duration : 47mn 30s
Bit rate : 3 963 Kbps
Width : 1 280 pixels
Height : 720 pixels
Display aspect ratio : 16:9
Frame rate mode : Constant
Frame rate : 25.000 fps
Color space : YUV
Chroma subsampling : 4:2:0
Bit depth : 8 bits
Scan type : Progressive
Bits/(Pixel*Frame) : 0.172
Stream size : 1.28 GiB (83%)
Title : Henry VIII: Mind of a Tyrant. Episode 1 "Prince 1485-1509" UK
Writing library : x264 core 133 r2334 a3ac64b
Encoding settings : cabac=1 / ref=3 / deblock=1:-1:-1 / analyse=0x3:0x133 / me=tesa / subme=8 / psy=1 / psy_rd=1.00:0.15 / mixed_ref=1 / me_range=32 / chroma_me=1 / trellis=2 / 8x8dct=1 / cqm=2 / deadzone=21,11 / fast_pskip=1 / chroma_qp_offset=-3 / threads=12 / lookahead_threads=2 / sliced_threads=0 / nr=0 / decimate=1 / interlaced=0 / bluray_compat=0 / constrained_intra=0 / bframes=3 / b_pyramid=2 / b_adapt=2 / b_bias=0 / direct=3 / weightb=1 / open_gop=0 / weightp=2 / keyint=250 / keyint_min=25 / scenecut=40 / intra_refresh=0 / rc_lookahead=40 / rc=2pass / mbtree=1 / bitrate=3963 / ratetol=1.0 / qcomp=0.60 / qpmin=10 / qpmax=51 / qpstep=4 / cplxblur=20.0 / qblur=0.5 / vbv_maxrate=62500 / vbv_bufsize=78125 / nal_hrd=none / ip_ratio=1.40 / aq=1:1.00
Language : English
Default : Yes
Forced : No
Audio #1
ID : 2
Format : AC-3
Format/Info : Audio Coding 3
Mode extension : CM (complete main)
Format settings, Endianness : Big
Codec ID : A_AC3
Duration : 47mn 30s
Bit rate mode : Constant
Bit rate : 256 Kbps
Channel(s) : 2 channels
Channel positions : Front: L R
Sampling rate : 48.0 KHz
Bit depth : 16 bits
Compression mode : Lossy
Stream size : 87.0 MiB (5%)
Title : СВ-Дубль по заказу ГТРК "Культура"
Language : Russian
Default : Yes
Forced : No
Audio #2
ID : 3
Format : AC-3
Format/Info : Audio Coding 3
Mode extension : CM (complete main)
Format settings, Endianness : Big
Codec ID : A_AC3
Duration : 47mn 30s
Bit rate mode : Constant
Bit rate : 448 Kbps
Channel(s) : 6 channels
Channel positions : Front: L C R, Side: L R, LFE
Sampling rate : 48.0 KHz
Bit depth : 16 bits
Compression mode : Lossy
Stream size : 152 MiB (10%)
Language : English
Default : No
Forced : No
Скриншоты
Зарегистрирован:
  • 01-Окт-13 23:49
  • Скачан: 1,325 раз

Скачать .torrent

16 KB

Тип: обычная
Статус: # сомнительно
Размер: 6.27 GB  ·  magnet6B7173C7B82F39606739285B9D5DE04DF2B82983
  • Свернуть поддиректории
  • Развернуть
  • Переключить
  • Увел./умен. окно
загружается...

HPotter

Top User 50

Стаж: 12 лет

Сообщений: 693

flag

HPotter · 01-Окт-13 23:50 (спустя 5 часов)

Добавлены эпизоды 2-4. Финал сериала.

Гном

Помощник модератора

Стаж: 8 лет 7 месяцев

Сообщений: 4050

flag

Гном · 13-Окт-13 19:22 (спустя 11 дней, ред. 13-Окт-13 19:22)

HPotter писал(а):
61098276Encoding settings : cabac=1 / ref=3 / deblock=1:-1:-1 / analyse=0x3:0x133 / me=tesa/ subme=8 / psy=1 / psy_rd=1.00:0.15 / mixed_ref=1 / me_range=32 / chroma_me=1 / trellis=2 / 8x8dct=1 / cqm=2 / deadzone=21,11 / fast_pskip=1 / chroma_qp_offset=-3 / threads=12 / lookahead_threads=2 / sliced_threads=0 / nr=0 / decimate=1 / interlaced=0 / bluray_compat=0 / constrained_intra=0 / bframes=3 / b_pyramid=2 / b_adapt=2 / b_bias=0 / direct=3 / weightb=1 / open_gop=0 / weightp=2 / keyint=250 / keyint_min=25 / scenecut=40 / intra_refresh=0 / rc_lookahead=40 / rc=2pass / mbtree=1 / bitrate=3963 / ratetol=1.0 / qcomp=0.60 / qpmin=10 / qpmax=51 / qpstep=4 / cplxblur=20.0 / qblur=0.5 / vbv_maxrate=62500 / vbv_bufsize=78125 / nal_hrd=none / ip_ratio=1.40 / aq=1:1.00
Критерии присвоения статусов # сомнительно и T временная
# Сомнительно

 
All rights reserved © 2017-2018
Loading...
Error