Прокурорская притча (Сергей Проханов, Алена Захарова, Александр Сычев) [2012, детектив, SATRip] Московский театр Луны

Статистика раздачи
Размер:  1.45 GB   |   Зарегистрирован:  4 года 5 месяцев   |   .torrent скачан:  442 раза
Сиды:  2
Автор
Сообщение

dmitry2264

VIP (Заслуженный)

Стаж: 10 лет

Сообщений: 7853

flag

dmitry2264 · 13-Апр-14 23:24 (4 года 5 месяцев назад)

 

Прокурорская притча Название театра: Московский театр Луны.
Год выпуска: 2012.
Жанр: детектив.
Продолжительность: 02:25:07.
Режиссеры: народный артист России, заслуженный деятель искусств России Сергей Проханов, Алена Захарова, Александр Сычев.
Действующие лица и исполнители:
Ледников - Сергей Варчук,
Анжелика Новикова - Александра Диброва,
Судья - заслуженный артист России Олег Марусев,
Негодин - Владимир Бегма,
Бамбук - Алексей Жуйков,
Катя - Надежда Луцкая,
Нюра - Людмила Светлова,
Вера - Ольга Кузьмина,
Генерал - Сергей Антонов,
Жеребуха - Татьяна Солнцева,
Цаплин - заслуженный артист России Владимир Майсурадзе,
Аристархов - Борис Комаров,
Ледников в детстве - Дианисий Толоконников,
Негодин в детстве - Дэни Аласания,
Бамбук в детстве - Паша Филиппов,
Катя в детстве - Юля Сорокина,
Цаплин в детстве - Сережа Зеленов.
О спектакле:
Спектакль поставлен по мотивам романа Александра Звягинцева "Ярмарка безумия".
Сюжет повествует о том, как бывший следователь прокуратуры - Валентин Ледников, совместно с амбициозной и юной телеведущей Анжеликой Новиковой, пишут сценарий для документального фильма о громком убийстве, которое когда-то все обсуждали.
Герои решили исследовать психологию преступления, а также найти причины, предшествующие этому событию. Решение суда кажется им несколько примитивным и узким, а они желают как можно лучше разобраться в этой запутанной истории. Не существует истины, которая бы устраивала всех, поэтому у каждого персонажа есть свое оправдание, своя правда и своя версия.

Дополнительная информация:
Страна: Россия .
Выпущено: Московский театр Луны, © Компания "ЛОНГ-фильм", © по заказу Правительства Москвы.
Автор: Александр Звягинцев.
Сценическая версия и постановка: народный артист России, заслуженный деятель искусств России Сергей Проханов.
Режиссер: Алена Захарова.
Художник-постановщик: Константин Розанов.
Художник по костюмам: Светлана Литвинова.
Балетмейстер: Олег Николаев.
Художник по свету: Андрей Буравчиков.
Музыкальное оформление: Игорь Заворотний.
Режиссер по пластике и каллиграфия: Александр Журавлев.
Художественный руководитель Театра Луны: народный артист России, заслуженный деятель искусств России Сергей Проханов.
Режиссер телеверсии: Александр Сычев.
Оператор-постановщик: Олег Пикалев.

О спектакле.
Релиз

Качество видео:...SATRip
Формат:.................AVI
Видео:..720x400 (1.80:1), 25 fps, XviD MPEG-4 ~1296 kbps avg, 0.18 bit/pixel
Аудио:..44.100 kHz, MPEG Layer 3, 2 ch, ~128.00 kbps avg
Отчет Media Info
General
Complete name : Prokurorskaya.pritcha_Moskovskij.teatr.Luny.2012.XviD.SATRip.fenixclub.avi
Формат : AVI
Формат/Информация : Audio Video Interleave
Размер файла : 1,45 Гбайт
Продолжительность : 2 ч. 25 м.
Общий поток : 1434 Кбит/сек
Программа кодирования : VirtualDubModRus 1.5.10.2 (build 2542/release)
Библиотека кодирования : VirtualDub build 32842/release
Видео
Идентификатор : 0
Формат : MPEG-4 Visual
Профиль формата : Advanced Simple@L5
Параметр BVOP формата : 2
Параметр QPel формата : Нет
Параметр GMC формата : Без точки перехода
Параметр матрицы формата : Default (MPEG)
Режим смешивания : Сжатый битовый поток
Идентификатор кодека : XVID
Идентификатор кодека/Подсказка : XviD
Продолжительность : 2 ч. 25 м.
Битрейт : 1296 Кбит/сек
Ширина : 720 пикселей
Высота : 400 пикселей
Соотношение сторон : 16:9
Частота кадров : 25,000 кадров/сек
Цветовое пространство : YUV
Субдискретизация насыщенности : 4:2:0
Битовая глубина : 8 бит
Тип развёртки : Прогрессивная
Метод сжатия : С потерями
Бит/(Пиксели*Кадры) : 0.180
Размер потока : 1,31 Гбайт (90%)
Библиотека кодирования : XviD 1.2.1 (UTC 2008-12-04)
Аудио
Идентификатор : 1
Формат : MPEG Audio
Версия формата : Version 1
Профиль формата : Layer 3
Режим : Joint stereo
Расширение режима : MS Stereo
Идентификатор кодека : 55
Идентификатор кодека/Подсказка : MP3
Продолжительность : 2 ч. 25 м.
Вид битрейта : Постоянный
Битрейт : 128 Кбит/сек
Каналы : 2 канала
Частота : 44,1 КГц
Метод сжатия : С потерями
Размер потока : 133 Мбайт (9%)
Выравнивание : Разделение по промежуткам
Продолжительность промежутка : 40 мс. (1,00 видеокадр)
Время предзагрузки промежутка : 500 мс.
Библиотека кодирования : LAME3.99.5
Скриншоты

Альтернативный хост
Зарегистрирован:
  • 13-Апр-14 23:24
  • Скачан: 442 раза

Скачать .torrent

15 KB

Тип: обычная
Статус: проверено
Размер: 1.45 GB  ·  magnet1BE87FAD0BEF85AB76291535781B75B165D1C32F
  • Свернуть поддиректории
  • Развернуть
  • Переключить
  • Увел./умен. окно
загружается...

LOZKADEGTYA

Стаж: 10 лет 8 месяцев

Сообщений: 344


LOZKADEGTYA · 18-Авг-18 14:40 (спустя 4 года 4 месяца)

У раздающего битый файл, 99,9%. Для просмотра не критично, но все таки. Неплохо бы, если появился сид с 100%, а то пойдет по цепочке неполный файл.

LOZKADEGTYA

Стаж: 10 лет 8 месяцев

Сообщений: 344


LOZKADEGTYA · 31-Авг-18 18:15 (спустя 13 дней)

Отлично. Кто то появился и 100%. Как минимум двоим я отдам полный файл.
 
All rights reserved © 2017-2018
Loading...
Error