Mylène Farmer: Timeless 2013 - Le film (Франсуа Ансс) [2013, Франция, концерт, музыка, BDRip HD (720p)] Original

Статистика раздачи
Размер:  6.11 GB   |   Зарегистрирован:  4 года   |   .torrent скачан:  1,531 раз
Сиды:  1   Личи:  1
Автор
Сообщение

yv_apple

Moderator

Стаж: 8 лет 3 месяца

Сообщений: 5546

flag

yv_apple · 19-Сен-14 21:16 (4 года назад, ред. 19-Сен-14 21:22)

 

Mylène Farmer: Timeless 2013 - Le film
9.115 / 10

Год выпуска: 2013
Страна: Франция
Жанр: концерт, музыка
Продолжительность: 120 мин.
Перевод: Не требуется
Оригинальная аудиодорожка: Есть
Субтитры: Нет
Режиссёр: Франсуа Ансс
В ролях: Милен Фармер
Бюджет: €30 000 000
Мировая премьера: 2 апреля 2014
Премьера (РФ): 2 апреля 2014, НеваФильм Emotion
Описание: Живая запись концерта TIMELESS 2013 была сделана во время тура в поддержку одноименного, шестого концертного альбома (и пятнадцатого в общем количестве) в творческой деятельности певицы.
Качество исходника: Blu-Ray 1080i
Качество: BDRip
Тип: 720p
Контейнер: m4v
Видео: 1280x532 at 25.000 fps, MPEG-4 AVC, ~6000 kbps avg
Аудио#1: French: 48 kHz, ААС, 2/0 (L,R), ~256.00 kbps avg
Аудио#2: French: 48 kHz, AC3, 3/2 (L,C,R,l,r) + LFE ch, ~640 kbps avg
iTunes Meta Tags for country fr
Код:
Name: Mylène Farmer : Timeless 2013 - Le Film
Artist: Mylène Farmer
Genre: Concert Films
Release Date: 2014-04-02T08:00:00Z
Description: Живая запись концерта TIMELESS 2013 была сделана во время тура в поддержку одноименного, шестого концертного альбома (и пятнадцатого в общем количестве) в творческой деятельности певицы.
Long Description: Живая запись концерта TIMELESS 2013 была сделана во время тура в поддержку одноименного, шестого концертного альбома (и пятнадцатого в общем количестве) в творческой деятельности певицы.
Rating: Tout public
Studio: Mylène Farmer
Cast: Милен Фармер
Director: Франсуа Ансс
Copyright: © 2014 Stuffed Monkey
contentID: 897792572
XID: Apple:vendor_id:2013-837982
Sort Name: Mylène Farmer : Timeless 2013 - Le Film
MediaInfo 720p Release
Код:
General
Complete name : Mylène Farmer_ Timeless 2013 - Le Film (HD).m4v
Format : MPEG-4
Codec ID : M4V
File size : 6.11 GiB
Duration : 2h 6mn
Overall bit rate mode : Variable
Overall bit rate : 6 907 Kbps
Movie name : Mylène Farmer: Timeless 2013 - Le Film
Performer : Mylène Farmer
Genre : Concert Films
ContentType : Short Film
Description : Живая запись концерта TIMELESS 2013 была сделана во время тура в поддержку одноименного, шестого концертного альбома (и пятнадцатого в общем количестве) в творческой деятельности певицы.
Recorded date : UTC 2014-06-09 07:00:00
Encoded date : UTC 2014-09-19 17:12:46
Tagged date : UTC 2014-09-19 17:44:21
Copyright : © 2014 Stuffed Monkey
Cover : Yes
Rating : None
Title/Sort : Timeless 2013
LongDescription : Живая запись концерта TIMELESS 2013 была сделана во время тура в поддержку одноименного, шестого концертного альбома (и пятнадцатого в общем количестве) в творческой деятельности певицы.
HDVideo : Yes
AppleStoreCatalogID : 897792572
Vendor : Apple:vendor_id:2013-837982
ContentRating : fr-movie|Tout public|000|
iTunMOVI : <?xml version="1.0" encoding="UTF-8"?> / <!DOCTYPE plist PUBLIC "-//Apple//DTD PLIST 1.0//EN" "http://www.apple.com/DTDs/PropertyList-1.0.dtd"> / <plist version="1.0"> / <dict> /  <key>cast</key> /  <array> /   <dict> /    <key>name</key> /    <string>Милен Фармер</string> /   </dict> /  </array> /  <key>directors</key> /  <array> /   <dict> /    <key>name</key> /    <string>Франсуа Ансс</string> /   </dict> /  </array> /  <key>studio</key> /  <string>Mylène Farmer</string> / </dict> / </plist>
Video #1
ID : 1
Format : AVC
Format/Info : Advanced Video Codec
Format profile : High@L3.1
Format settings, CABAC : No
Format settings, ReFrames : 3 frames
Codec ID : avc1
Codec ID/Info : Advanced Video Coding
Duration : 2h 6mn
Bit rate : 6 000 Kbps
Width : 1 280 pixels
Height : 532 pixels
Display aspect ratio : 2.40:1
Frame rate mode : Constant
Frame rate : 25.000 fps
Color space : YUV
Chroma subsampling : 4:2:0
Bit depth : 8 bits
Scan type : Progressive
Bits/(Pixel*Frame) : 0.352
Stream size : 5.30 GiB (87%)
Writing library : x264 core 138 r2358 9e941d1
Encoding settings : cabac=0 / ref=3 / deblock=1:-1:-1 / analyse=0x3:0x113 / me=umh / subme=9 / psy=1 / psy_rd=1.00:0.00 / mixed_ref=1 / me_range=16 / chroma_me=1 / trellis=0 / 8x8dct=1 / cqm=0 / deadzone=21,11 / fast_pskip=0 / chroma_qp_offset=-2 / threads=6 / lookahead_threads=1 / sliced_threads=0 / nr=0 / decimate=0 / interlaced=0 / bluray_compat=0 / constrained_intra=0 / bframes=3 / b_pyramid=0 / b_adapt=2 / b_bias=0 / direct=3 / weightb=0 / open_gop=0 / weightp=0 / keyint=250 / keyint_min=25 / scenecut=40 / intra_refresh=0 / rc_lookahead=40 / rc=2pass / mbtree=1 / bitrate=6000 / ratetol=1.0 / qcomp=0.80 / qpmin=0 / qpmax=69 / qpstep=4 / cplxblur=20.0 / qblur=0.5 / vbv_maxrate=9500 / vbv_bufsize=9500 / nal_hrd=none / ip_ratio=1.30 / aq=1:0.80
Language : French
Encoded date : UTC 2014-09-19 17:12:47
Tagged date : UTC 2014-09-19 17:20:00
Video #2
ID : 5
Format : JPEG
Codec ID : jpeg
Duration : 2h 6mn
Bit rate mode : Variable
Bit rate : 734 bps
Width : 640 pixels
Height : 266 pixels
Display aspect ratio : 2.40:1
Frame rate mode : Variable
Frame rate : 0.003 fps
Minimum frame rate : 0.002 fps
Maximum frame rate : 0.010 fps
Color space : YUV
Chroma subsampling : 4:2:0
Bit depth : 8 bits
Compression mode : Lossy
Bits/(Pixel*Frame) : 1.437
Stream size : 776 KiB (0%)
Language : French
Encoded date : UTC 2014-09-19 17:23:07
Tagged date : UTC 2014-09-19 17:23:08
Audio #1
ID : 2
Format : AAC
Format/Info : Advanced Audio Codec
Format profile : LC
Codec ID : 40
Duration : 2h 6mn
Bit rate mode : Variable
Bit rate : 271 Kbps
Maximum bit rate : 474 Kbps
Channel(s) : 2 channels
Channel positions : Front: L R
Sampling rate : 48.0 KHz
Compression mode : Lossy
Stream size : 245 MiB (4%)
Language : French
Encoded date : UTC 2014-09-19 17:12:47
Tagged date : UTC 2014-09-19 17:22:56
Audio #2
ID : 3
Format : AC-3
Format/Info : Audio Coding 3
Mode extension : CM (complete main)
Format settings, Endianness : Big
Codec ID : ac-3
Duration : 2h 6mn
Bit rate mode : Constant
Bit rate : 640 Kbps
Channel(s) : 6 channels
Channel positions : Front: L C R, Side: L R, LFE
Sampling rate : 48.0 KHz
Bit depth : 16 bits
Compression mode : Lossy
Stream size : 580 MiB (9%)
Language : French
Encoded date : UTC 2014-09-19 17:12:47
Tagged date : UTC 2014-09-19 17:22:56
Menu #1
00:00:00.000 : Prologue
00:03:00.440 : Timeless Genesis
00:07:19.160 : A force de…
00:12:18.400 : Comme j’ai mal
00:16:12.240 : C’est une belle journee
00:21:55.040 : Monkey Me
00:27:21.560 : Slipping away (Crier la vie) en duo avec Moby
00:31:12.400 : Elle a dit
00:34:53.680 : Oui mais… Non
00:39:22.480 : Timeless Ballet
00:43:55.080 : Mad World en duo avec Gary Jules
00:47:46.160 : Les Mots en duo avec Gary Jules
00:53:27.040 : Je te dis tout
00:58:55.640 : Et pourtant…
01:05:03.240 : Desenchantee
01:14:06.000 : Bleu Noir
01:18:31.320 : Diabolique mon ange
01:25:28.000 : Sans contrefacon
01:30:53.680 : Maman a tort
01:32:37.680 : Je t’aime melancolie
01:37:30.000 : XXL
01:39:12.000 : A l’ombre
01:43:54.600 : Inseparables
01:51:14.360 : Rever
01:56:02.600 : Endlessly
02:02:44.640 : End Titles
Menu #2
ID : 4
Codec ID : text
Duration : 2h 6mn
Language : French
Encoded date : UTC 2014-09-19 17:22:56
Tagged date : UTC 2014-09-19 17:22:56
00:00:00.000 : Prologue
00:03:00.440 : Timeless Genesis
00:07:19.160 : A force de…
00:12:18.400 : Comme j’ai mal
00:16:12.240 : C’est une belle journee
00:21:55.040 : Monkey Me
00:27:21.560 : Slipping away (Crier la vie) en duo avec Moby
00:31:12.400 : Elle a dit
00:34:53.680 : Oui mais… Non
00:39:22.480 : Timeless Ballet
00:43:55.080 : Mad World en duo avec Gary Jules
00:47:46.160 : Les Mots en duo avec Gary Jules
00:53:27.040 : Je te dis tout
00:58:55.640 : Et pourtant…
01:05:03.240 : Desenchantee
01:14:06.000 : Bleu Noir
01:18:31.320 : Diabolique mon ange
01:25:28.000 : Sans contrefacon
01:30:53.680 : Maman a tort
01:32:37.680 : Je t’aime melancolie
01:37:30.000 : XXL
01:39:12.000 : A l’ombre
01:43:54.600 : Inseparables
01:51:14.360 : Rever
01:56:02.600 : Endlessly
02:02:44.640 : End Titles
Bit rate mode : VBR
x264 лог 720p Release
Код:
x264.exe" --level 3.1 --pass 2 --bitrate 6000 --stats "Y:\Torrent\farmer.stats" --deblock -1:-1 --no-cabac --b-adapt 2 --b-pyramid none --no-weightb --weightp 0 --ipratio 1.3 --pbratio 1.2 --vbv-bufsize 9500 --vbv-maxrate 9500 --qcomp 0.8 --aq-strength 0.8 --me umh--direct auto --subme 9 --trellis 0 --no-dct-decimate --no-fast-pskip --aud --output "Y:\Torrent\farmer.h264" "Y:\Torrent\farmer.avs"
avs [info]: 1280x532p 0:0 @ 25/1 fps (cfr)
x264 [info]: using cpu capabilities: MMX2 SSE2Fast SSSE3 SSE4.2 AVX
x264 [info]: profile High, level 3.1
x264 [info]: frame I:2736  Avg QP:17.37  size: 90261
x264 [info]: frame P:78121 Avg QP:19.45  size: 41929
x264 [info]: frame B:109221 Avg QP:20.18  size: 19865
x264 [info]: consecutive B-frames:  8.0% 34.1% 36.4% 21.5%
x264 [info]: mb I  I16..4:  9.4% 55.2% 35.3%
x264 [info]: mb P  I16..4:  4.7% 14.2%  7.0%  P16..4: 38.4% 22.3%  9.6%  0.0%  0.0%    skip: 3.8%
x264 [info]: mb B  I16..4:  0.7%  3.1%  1.3%  B16..8: 44.6% 16.1%  3.4%  direct:10.1%  skip:20.7%  L0:40.4% L1:48.0% BI:11.6%
x264 [info]: 8x8 transform intra:56.0% inter:50.2%
x264 [info]: direct mvs  spatial:86.5% temporal:13.5%
x264 [info]: coded y,uvDC,uvAC intra: 79.0% 86.1% 65.1% inter: 39.9% 44.9% 20.0%
x264 [info]: i16 v,h,dc,p: 39% 14%  9% 38%
x264 [info]: i8 v,h,dc,ddl,ddr,vr,hd,vl,hu:  9%  6%  5% 13% 16% 15% 14% 11% 10%
x264 [info]: i4 v,h,dc,ddl,ddr,vr,hd,vl,hu: 15%  7%  4% 12% 16% 15% 12% 11%  8%
x264 [info]: i8c dc,h,v,p: 47% 18% 21% 14%
x264 [info]: ref P L0: 70.9% 17.2% 11.9%
x264 [info]: ref B L0: 81.8% 18.2%
x264 [info]: kb/s:5989.33
encoded 190078 frames, 15.12 fps, 5989.33 kb/s
Скриншоты 720p Release



Релиз подготовлен для просмотра на Apple TV, iPad, iPhone, iPod Touch.
Для просмотра данного релиза на компьютере с ОС Windows рекомендуется использовать VLC media player
Зарегистрирован:
  • 19-Сен-14 21:16
  • Скачан: 1,531 раз

Скачать .torrent

31 KB

Тип: обычная
Статус: проверено
Размер: 6.11 GB  ·  magnet0F1F5E5D44EACC93B159F7F10FD922F7BC92B8F4
  • Свернуть поддиректории
  • Развернуть
  • Переключить
  • Увел./умен. окно
загружается...

nick1980n

Top Bonus 05* 10TB

Стаж: 8 лет 4 месяца

Сообщений: 508

flag

nick1980n · 21-Сен-14 20:04 (спустя 1 день 22 часа)

Спасибо большое.
 15" MBP Retina Late 13  iPhone 4s/8/iOS 9.1/sennheiser ie60  apple tv3/
500/500 mbit

imayner

Стаж: 7 лет 9 месяцев

Сообщений: 2

flag

imayner · 11-Окт-14 02:23 (спустя 19 дней)

А в 1080 будет?)))

imayner

Стаж: 7 лет 9 месяцев

Сообщений: 2

flag

imayner · 04-Май-15 08:00 (спустя 6 месяцев)

1080 будет или нет?) как бы интересно было бы получить ответ...

yv_apple

Moderator

Стаж: 8 лет 3 месяца

Сообщений: 5546

flag

yv_apple · 04-Май-15 11:42 (спустя 3 часа)

imayner писал(а):
65432136А в 1080 будет?)))
От меня - нет...
 
All rights reserved © 2017-2018
Loading...
Error