(Melodic Hard Rock) [CD] Valentine (Robby Valentine) - Falling Down In Misanthropolis - 2007, FLAC (image+.cue), lossless

Статистика раздачи
Размер:  445.6 MB   |   Зарегистрирован:  3 года 2 месяца   |   .torrent скачан:  568 раз
Сиды:  1
Автор
Сообщение

Dattura

Стаж: 9 лет 7 месяцев

Сообщений: 2589

flag

Dattura · 29-Июн-15 20:37 (3 года 2 месяца назад)

 

VALENTINE (Robby Valentine) / Falling Down In Misanthropolis
Жанр: Melodic Hard Rock
Носитель: CD
Страна-производитель диска (релиза): Japan
Год издания: 2007
Издатель (лейбл): Universal Music
Номер по каталогу: UICE-1132
Страна исполнителя (группы): Netherlands
Аудиокодек: FLAC (*.flac)
Тип рипа: image+.cue
Битрейт аудио: lossless
Продолжительность: 01:01:11
Источник (релизер): собственный диск
Наличие сканов в содержимом раздачи: нет
Треклист:
01. Falling Down
02. Just A Dream (Someone Sold The World)
03. 4th Rate Razorback
04. Save Myself
05. Rock Me Like A Hurricane
06. April Fool
07. Here
08. The Bitter Escape
09. SOS (ABBA cover)
10. Flick Of The Wrist (Queen cover)
11. Show Your Face
12. Searching Forever
13. Make Way (For The Messenger) '2006 (bonus)
14. The Mistake (bonus)
Лог создания рипа
Exact Audio Copy V1.0 beta 3 from 29. August 2011
Отчёт EAC об извлечении, выполненном 28. июня 2015, 17:39
Robby Valentine / Falling Down In Misanthropolis
Дисковод: PIONEER BD-RW BDR-209D Adapter: 0 ID: 0
Режим чтения : Достоверность
Использование точного потока : Да
Отключение кэша аудио : Да
Использование указателей C2 : Нет
Коррекция смещения при чтении : 667
Способность читать области Lead-in и Lead-out : Нет
Заполнение пропущенных сэмплов тишиной : Да
Удаление блоков с тишиной в начале и конце : Нет
При вычислениях CRC использовались нулевые сэмплы : Да
Интерфейс : Встроенный Win32-интерфейс для Win NT/2000
Выходной формат : Пользовательский кодировщик
Выбранный битрейт : 128 kBit/s
Качество : Высокий
Добавление ID3-тега : Нет
Утилита сжатия : C:\Program Files (x86)\Exact Audio Copy\Flac\flac.exe
Дополнительные параметры : -V -8 -T "Date=%year%" -T "Genre=%genre%" %source%
TOC извлечённого CD
Трек | Старт | Длительность | Начальный сектор | Конечный сектор
---------------------------------------------------------------------
1 | 0:00.00 | 4:28.12 | 0 | 20111
2 | 4:28.12 | 4:10.35 | 20112 | 38896
3 | 8:38.47 | 5:19.40 | 38897 | 62861
4 | 13:58.12 | 5:31.43 | 62862 | 87729
5 | 19:29.55 | 4:17.62 | 87730 | 107066
6 | 23:47.42 | 5:19.23 | 107067 | 131014
7 | 29:06.65 | 3:31.22 | 131015 | 146861
8 | 32:38.12 | 4:14.58 | 146862 | 165969
9 | 36:52.70 | 3:01.24 | 165970 | 179568
10 | 39:54.19 | 3:55.61 | 179569 | 197254
11 | 43:50.05 | 3:32.72 | 197255 | 213226
12 | 47:23.02 | 5:29.25 | 213227 | 237926
13 | 52:52.27 | 4:01.35 | 237927 | 256036
14 | 56:53.62 | 4:17.65 | 256037 | 275376
Характеристики диапазона извлечения и сообщения об ошибках
Выбранный диапазон
Имя файла D:\Flac\Новая папка\Robby Valentine - Falling Down In Misanthropolis.wav
Пиковый уровень 98.8 %
Скорость извлечения 7.8 X
Качество диапазона 100.0 %
CRC теста ECCDB3DB
CRC копии ECCDB3DB
Копирование... OK
Ошибок не произошло
AccurateRip: сводка
Трек 1 : извлечено точно (доверие 1) [64EE261A] (AR v2)
Трек 2 : извлечено точно (доверие 1) [41489F50] (AR v2)
Трек 3 : извлечено точно (доверие 1) [5F1A144A] (AR v2)
Трек 4 : извлечено точно (доверие 1) [4D6AEDB5] (AR v2)
Трек 5 : извлечено точно (доверие 1) [A2C6FDE9] (AR v2)
Трек 6 : извлечено точно (доверие 1) [BE000A9F] (AR v2)
Трек 7 : извлечено точно (доверие 1) [3A632DEC] (AR v2)
Трек 8 : извлечено точно (доверие 1) [43E6DC73] (AR v2)
Трек 9 : извлечено точно (доверие 1) [B8B69508] (AR v2)
Трек 10 : извлечено точно (доверие 1) [AE8F702F] (AR v2)
Трек 11 : извлечено точно (доверие 1) [6FDFA946] (AR v2)
Трек 12 : извлечено точно (доверие 1) [CE316FBE] (AR v2)
Трек 13 : извлечено точно (доверие 1) [77C699C2] (AR v2)
Трек 14 : извлечено точно (доверие 1) [5EF33BA4] (AR v2)
Все треки извлечены точно
Конец отчёта
==== Контрольная сумма отчёта FB4252C69AE32D35CDFCB9E2E248DE5CCD2090D884EFE8B2F9985795D4505541 ====
Зарегистрирован:
  • 29-Июн-15 20:37
  • Скачан: 568 раз

Скачать .torrent

18 KB

Тип: обычная
Статус: проверено
Размер: 445.6 MB  ·  magnetAB2286692931238C10243001AB6B763AC70E6741
  • Свернуть поддиректории
  • Развернуть
  • Переключить
  • Увел./умен. окно
загружается...

alucardag

Стаж: 8 лет 3 месяца

Сообщений: 61

flag

alucardag · 30-Июн-15 20:39 (спустя 1 день)

Скорость, где ты?
 
All rights reserved © 2017-2018
Loading...
Error