(Hard Rock / Melodic Metal) [CD] Dynazty - Titanic Mass - 2016, FLAC (image+.cue), lossless

Статистика раздачи
Размер:  362.7 MB   |   Зарегистрирован:  2 года 4 месяца   |   .torrent скачан:  1,635 раз
Сиды:  1
Автор
Сообщение

GriffonNest

Top Seed 03* 160r

Стаж: 12 лет

Сообщений: 1308

GriffonNest · 30-Апр-16 03:10 (2 года 4 месяца назад, ред. 30-Апр-16 03:13)

 

Dynazty
"Titanic Mass"
(2016)
Жанр: Hard Rock / Melodic Metal
Страна производитель диска: UK
Год издания: 2016
Издатель (лейбл): Spinefarm Records
Номер по каталогу: SPINE774582
Страна исполнителя: Sweden
Аудиокодек: FLAC (*.flac)
Тип рипа: image+.cue
Битрейт аудио: lossless
Продолжительность: 46:18
Источник (релизер): Собственный рип с оригинального диска
Наличие сканов в содержимом раздачи: да

1. The Human Paradox (4:22)
2. Untamer Of Your Soul (3:48)
3. Roar Of The Underdog (3:47)
4. Titanic Mass (3:40)
5. Keys To Paradise (4:24)
6. I Want To Live Forever (4:15)
7. The Beast Inside (4:30)
8. Break Into The Wild (3:45)
9. Crack In The Shell (4:19)
10. Free Man’s Anthem (4:34)
11. The Smoking Gun (4:54)
Рип выложен по многочисленым просьбам юзеров этого нужного сайта!!!
Лог создания рипа
Exact Audio Copy V1.0 beta 2 from 29. April 2011
EAC extraction logfile from 21. April 2016, 19:44
Dynazty / Titanic Mass
Used drive : HL-DT-STDVDRAM GH24LS70 Adapter: 3 ID: 0
Read mode : Secure
Utilize accurate stream : Yes
Defeat audio cache : Yes
Make use of C2 pointers : No
Read offset correction : 667
Overread into Lead-In and Lead-Out : No
Fill up missing offset samples with silence : Yes
Delete leading and trailing silent blocks : No
Null samples used in CRC calculations : Yes
Used interface : Native Win32 interface for Win NT & 2000
Used output format : User Defined Encoder
Selected bitrate : 896 kBit/s
Quality : High
Add ID3 tag : No
Command line compressor : C:\Program Files\Exact Audio Copy\FLAC\FLAC.EXE
Additional command line options : -V -8 -T "Date=%year%" -T "Genre=%genre%" %source%
TOC of the extracted CD
Track | Start | Length | Start sector | End sector
---------------------------------------------------------
1 | 0:00.00 | 4:22.05 | 0 | 19654
2 | 4:22.05 | 3:48.21 | 19655 | 36775
3 | 8:10.26 | 3:47.42 | 36776 | 53842
4 | 11:57.68 | 3:40.30 | 53843 | 70372
5 | 15:38.23 | 4:24.03 | 70373 | 90175
6 | 20:02.26 | 4:15.23 | 90176 | 109323
7 | 24:17.49 | 4:30.13 | 109324 | 129586
8 | 28:47.62 | 3:45.51 | 129587 | 146512
9 | 32:33.38 | 4:19.30 | 146513 | 165967
10 | 36:52.68 | 4:34.35 | 165968 | 186552
11 | 41:27.28 | 4:54.68 | 186553 | 208670
Range status and errors
Selected range
Filename E:\Dynazty - Titanic Mass (2016)\Dynazty.wav
Peak level 99.9 %
Extraction speed 1.7 X
Range quality 100.0 %
Copy CRC F886701C
Copy OK
No errors occurred
AccurateRip summary
Track 1 not present in database
Track 2 not present in database
Track 3 not present in database
Track 4 not present in database
Track 5 not present in database
Track 6 not present in database
Track 7 not present in database
Track 8 not present in database
Track 9 not present in database
Track 10 not present in database
Track 11 not present in database
None of the tracks are present in the AccurateRip database
End of status report
==== Log checksum 809DC7DF92B17EDB6BA290FA672EF451F168DD9B31E8F0883307DFDED81EE9F4 ====
Состав

Nils Molin (Vocals)
Rob Love Magnusson (Guitar)
Mike Laver (Guitar)
Jonathan Olsson (Bass)
George Egg (Drums)
Зарегистрирован:
  • 30-Апр-16 03:10
  • Скачан: 1,635 раз

Скачать .torrent

15 KB

Тип: обычная
Статус: проверено
Размер: 362.7 MB  ·  magnetCDBDF0ADA554FD3C52AD48D2988C5D2A58521698
  • Свернуть поддиректории
  • Развернуть
  • Переключить
  • Увел./умен. окно
загружается...

Rock Live Now & Forever!

chubra

Стаж: 8 лет 5 месяцев

Сообщений: 14

flag

chubra · 30-Апр-16 11:26 (спустя 8 часов)

Спасибо большое! Очень долго искал лося, спасибо что выложили.

URIYYY

Стаж: 9 лет 4 месяца

Сообщений: 102

flag

URIYYY · 30-Апр-16 12:52 (спустя 1 час 25 мин., ред. 30-Апр-16 12:52)

За лосика, большое - Мерси!
Расщедрился бы ещё на Human Zoo - My Own God, а....

GriffonNest

Top Seed 03* 160r

Стаж: 12 лет

Сообщений: 1308

GriffonNest · 30-Апр-16 12:54 (спустя 1 мин.)

Vodyarkin писал(а):
70595100дорожка проторена и напряг видимо излишен
Не напрягайся излишне и не качай напрягаясь!

Rock Live Now & Forever!

GriffonNest

Top Seed 03* 160r

Стаж: 12 лет

Сообщений: 1308

GriffonNest · 30-Апр-16 17:54 (спустя 5 часов, ред. 30-Апр-16 17:54)

Vodyarkin писал(а):
7059676670595635даже если альбом обычный ширпотреб.
Бесплатный совет: всегда и везде добавляй волшебное слово IMHO (In my humble opinion), а по русски просто "по моему скромному мнению" , не истери понапрасну, и к тебе, может быть, потянутся люди!

Rock Live Now & Forever!

lobashova

Стаж: 9 лет 10 месяцев

Сообщений: 6469

flag

lobashova · 30-Апр-16 18:09 (спустя 15 мин.)

Спасибо Большое! Может порадуете и Human Zoo - My Own God?

kegeshka7

Стаж: 9 лет 3 месяца

Сообщений: 39

flag

kegeshka7 · 01-Май-16 16:19 (спустя 22 часа, ред. 01-Май-16 16:19)

Спасибо. Но, чем дальше тем меньше к ним интерес. А ведь потенциал был солидный.

Гость


Гость · 13-Авг-16 09:52 (спустя 3 месяца 11 дней)

Цитата:
Бесплатный совет: всегда и везде добавляй волшебное слово IMHO
Любой адекватный человек понимает, что мнение есть мнение.
 
 
All rights reserved © 2017-2018
Loading...
Error