(Melodic Rock / Hard Rock) [CD] Hartmann - Shadows & Silhouettes - 2016, FLAC (tracks+.cue), lossless

Статистика раздачи
Размер:  345.6 MB   |   Зарегистрирован:  1 год 11 месяцев   |   .torrent скачан:  880 раз
Сиды:  3   Личи:  1
Автор
Сообщение

crossovernickk

Стаж: 7 лет 11 месяцев

Сообщений: 2857

flag

crossovernickk · 08-Окт-16 22:12 (1 год 11 месяцев назад, ред. 08-Окт-16 22:17)

 

Hartmann ~ Shadows & Silhouettes

Жанр: Melodic Rock / Hard Rock
Носитель: CD
Страна-производитель диска (релиза): Germany
Год издания: 2016
Издатель (лейбл): Pride & Joe Music
Номер по каталогу: PJM 10353
Страна исполнителя (группы): Germany
Аудиокодек: FLAC (*.flac)
Тип рипа: tracks+.cue
Битрейт аудио: lossless
Продолжительность: 52:02
Источник (релизер): и-нет
Наличие сканов в содержимом раздачи: сетевые
Треклист:
01. Irresistible (4:20)
02. High on You (3:59)
03. Glow (3:52)
04. When Your Mama Was a Hippie (3:55)
05. Jaded Heart (4:26)
06. Amazing (4:01)
07. Still the Same (4:11)
08. I Would Murder for You (3:43)
09. The Letting Go (4:30)
10. Too Good to Be True (4:36)
11. Shadow in My Eyes (3:27)
12. Last Goodbye (5:23)
13. Shadows (Hidden Track) (1:39)

Лог создания рипа
увы   (временный рип)
Содержание индексной карты (.CUE)
REM COMMENT "CUETools generated dummy CUE sheet"
PERFORMER "Hartmann"
TITLE "Shadows & Silhouettes"
REM DATE 2016
REM GENRE "Rock"
FILE "01. Irresistible.flac" WAVE
TRACK 01 AUDIO
PERFORMER "Hartmann"
TITLE "Irresistible"
INDEX 01 00:00:00
FILE "02. High on You.flac" WAVE
TRACK 02 AUDIO
PERFORMER "Hartmann"
TITLE "High on You"
INDEX 01 00:00:00
FILE "03. Glow.flac" WAVE
TRACK 03 AUDIO
PERFORMER "Hartmann"
TITLE "Glow"
INDEX 01 00:00:00
FILE "04. When Your Mama Was a Hippie.flac" WAVE
TRACK 04 AUDIO
PERFORMER "Hartmann"
TITLE "When Your Mama Was a Hippie"
INDEX 01 00:00:00
FILE "05. Jaded Heart.flac" WAVE
TRACK 05 AUDIO
PERFORMER "Hartmann"
TITLE "Jaded Heart"
INDEX 01 00:00:00
FILE "06. Amazing.flac" WAVE
TRACK 06 AUDIO
PERFORMER "Hartmann"
TITLE "Amazing"
INDEX 01 00:00:00
FILE "07. Still the Same.flac" WAVE
TRACK 07 AUDIO
PERFORMER "Hartmann"
TITLE "Still the Same"
INDEX 01 00:00:00
FILE "08. I Would Murder for You.flac" WAVE
TRACK 08 AUDIO
PERFORMER "Hartmann"
TITLE "I Would Murder for You"
INDEX 01 00:00:00
FILE "09. The Letting Go.flac" WAVE
TRACK 09 AUDIO
PERFORMER "Hartmann"
TITLE "The Letting Go"
INDEX 01 00:00:00
FILE "10. Too Good to Be True.flac" WAVE
TRACK 10 AUDIO
PERFORMER "Hartmann"
TITLE "Too Good to Be True"
INDEX 01 00:00:00
FILE "11. Shadow in My Eyes.flac" WAVE
TRACK 11 AUDIO
PERFORMER "Hartmann"
TITLE "Shadow in My Eyes"
INDEX 01 00:00:00
FILE "12. Last Goodbye.flac" WAVE
TRACK 12 AUDIO
PERFORMER "Hartmann"
TITLE "Last Goodbye"
INDEX 01 00:00:00
FILE "13. Shadows (Hidden Track).flac" WAVE
TRACK 13 AUDIO
PERFORMER "Hartmann"
TITLE "Shadows (Hidden Track)"
INDEX 01 00:00:00
Лог проверки качества
AUDIOCHECKER v2.0 beta (build 457) - by Dester - opdester@freemail.hu
~~~~~~~~~~~~~~~~~~~~~~~~~~~~~~~~~~
-=== НЕ РЕДАКТИРУЙТЕ ЭТОТ ФАЙЛ! ===-
Путь: ...\Hartmann - Shadows & Silhouettes (2016)
01 -=- 01. Irresistible.flac -=- CDDA (100%)
02 -=- 02. High on You.flac -=- CDDA (100%)
03 -=- 03. Glow.flac -=- CDDA (100%)
04 -=- 04. When Your Mama Was a Hippie.flac -=- CDDA (100%)
05 -=- 05. Jaded Heart.flac -=- CDDA (99%)
06 -=- 06. Amazing.flac -=- CDDA (100%)
07 -=- 07. Still the Same.flac -=- CDDA (100%)
08 -=- 08. I Would Murder for You.flac -=- CDDA (100%)
09 -=- 09. The Letting Go.flac -=- CDDA (99%)
10 -=- 10. Too Good to Be True.flac -=- CDDA (100%)
11 -=- 11. Shadow in My Eyes.flac -=- CDDA (100%)
12 -=- 12. Last Goodbye.flac -=- CDDA (100%)
13 -=- 13. Shadows (Hidden Track).flac -=- CDDA (99%)
Сводка 99,77% CDDA
44121476
Лог DRM
foobar2000 1.2.9 / Dynamic Range Meter 1.1.1
log date: 2016-10-08 22:02:42
--------------------------------------------------------------------------------
Analyzed: Hartmann / Shadows & Silhouettes
--------------------------------------------------------------------------------
DR Peak RMS Duration Track
--------------------------------------------------------------------------------
DR5 -3.00 dB -9.09 dB 4:20 01-Irresistible
DR6 -2.37 dB -9.15 dB 3:59 02-High on You
DR6 -2.00 dB -10.53 dB 3:52 03-Glow
DR11 0.00 dB -12.68 dB 3:55 04-When Your Mama Was a Hippie
DR5 -2.50 dB -10.03 dB 4:26 05-Jaded Heart
DR5 -2.50 dB -8.82 dB 4:01 06-Amazing
DR7 -3.50 dB -12.85 dB 4:11 07-Still the Same
DR6 -1.00 dB -7.78 dB 3:43 08-I Would Murder for You
DR9 -1.00 dB -13.30 dB 4:30 09-The Letting Go
DR7 -1.00 dB -9.67 dB 4:36 10-Too Good to Be True
DR8 -3.90 dB -13.94 dB 3:27 11-Shadow in My Eyes
DR7 -1.00 dB -10.93 dB 5:23 12-Last Goodbye
DR7 -11.20 dB -20.93 dB 1:39 13-Shadows (Hidden Track)
--------------------------------------------------------------------------------
Number of tracks: 13
Official DR value: DR7
Samplerate: 44100 Hz
Channels: 2
Bits per sample: 16
Bitrate: 703 kbps
Codec: FLAC
================================================================================
Об исполнителе (группе)
Зарегистрирован:
  • 08-Окт-16 22:12
  • Скачан: 880 раз
Скачать .torrent через uBar.pro

Скачать .torrent

15 KB

Тип: обычная
Статус: # сомнительно
Размер: 345.6 MB  ·  magnet6BC87C61B80616A4B2DE013C0FE5A8526F7ABB42
  • Свернуть поддиректории
  • Развернуть
  • Переключить
  • Увел./умен. окно
загружается...

Olaf der Weisse

Moderator gray

Стаж: 9 лет 7 месяцев

Сообщений: 3903

Olaf der Weisse · 10-Окт-16 14:06 (спустя 1 день 15 часов)

# сомнительно - из-за отсутствия лога рипера.
 
All rights reserved © 2017-2018
Loading...
Error