Легендарный игрок Тэцуя / Gambler Densetsu Tetsuya / Legendary Gambler Tetsuya / Shoubushi Densetsu Tetsuya (Нисидзава Нобутака) [TV] [20 из 20] [Без хардсаба] [JAP+SUB] [2000, сёнен, драма, азартные игры, DVDRip]

Статистика раздачи
Размер:  4.83 GB   |   Зарегистрирован:  1 год 10 месяцев   |   .torrent скачан:  274 раза
Сиды:  3   Личи:  2
Автор
Сообщение

jhyyz

Стаж: 9 лет 8 месяцев

Сообщений: 241

flag

jhyyz · 22-Ноя-16 00:04 (1 год 10 месяцев назад, ред. 22-Ноя-16 18:45)

 


Легендарный игрок Тэцуя
Legendary Gambler Tetsuya
Gambler Densetsu Tetsuya
Shoubushi Densetsu Tetsuya

勝負師伝説哲也

 
Год выпуска: 2000
Страна: Япония
Жанр: сёнен, драма, азартные игры
Продолжительность: ТВ, 20 эп. по 24 мин.
 
Перевод:
  1. Русские субтитры на серии 1-7:
    переводчик/редактор — Tomokazu
     
  2. Русские субтитры на серии 8-20:
    переводчик — N1K1, перевод песен — Hollow, редактор — zeeros21

Студия:
Режиссер: Нисидзава Нобутака

Описание:
1946 год. Синдзюку после войны в Тихом океане.
Асада Тецуя считает себя неплохим игроком в маджонг. Однажды за игральным столом ему попадается вроде ничем не примечательный старик, который с легкостью его обыгрывает. Тэцуя узнает, что имеет дело с «профи» — так профессиональные игроки в маджонг сами себя называют. Он просит обучить его всем премудростям этой игры. Старик Бошу сначала не хочет брать себе партнера для игры, но поняв, что у Тецуи есть явный талант, берется за его обучение. Так рождается лучший дуэт Синдзюку по игре в маджонг...
Произведение основано на молодых годах жизни Асады Тэцуи, известного писателя и игрока в маджонг.

Информационные ссылки:
AniDB
World Art
MAL
Оф. сайт

Качество: DVDRip
Тип видео: без хардсаба
Формат: wmv
Видео: VC-1/WMV9, 8 bit, 640x480, ~1400 Kbps, 23.976 fps
Аудио JAP: WMA9, 48000Hz, 188 Kbps, 2ch

Список эпизодов
  1. Волшебник / Magician of the Tiles / 牌の魔術師
  2. Законы профессионалов / The Law of Bainin / 玄人の掟
  3. Условия победы / Winner`s Conditions / 勝者の条件
  4. Лучший дуэт Синдзюку / Birth of the Strongest Combination in Shinjuku / 新宿最強コンビ誕生
  5. Лучшие на Востоке против лучших в Синдзюку / Toyo №1 VS Shinjuku №1 / 東洋一対新宿一
  6. Потенциал / Hidden Strength / 底力
  7. Божественная удача / Destiny / 天運
  8. Мрачный жнец / Closing In Death God / 忍び寄る死神
  9. Битва против смерти / Death God Seal / 死神封じ
  10. Дьявольское око возвращается / Return of the Magic Eye / 魔眼再び
  11. Мрак отступает / End of the Darkness / 闇の終わり
  12. Непобедимая Девушка / Imortal Lady / 不死身の女
  13. Хрупкий Цветок / Flower`s Life / 華のいのち
  14. Испорченный телефон / Unreachable Sign / 届かぬ通し
  15. Партнеры / Bonds of a Combination / コンビの絆
  16. Настоящий игрок / The Real Professional / 本物の玄人
  17. Перерождение Легенды / Revived Legend / 甦る伝説
  18. Небесная рука / Parting Tenna / 別れの天和
  19. Дора!Дора!Дора! / Dora! Dora! Dora! / ドラ!ドラ!ドラ!
  20. Наш Мир / Our World / 俺たちの世界

Скриншоты

Отчет MediaInfo
 
Полное имя                               : Shoubushi Densetsu Tetsuya - 01.wmv
Формат : Windows Media
Размер файла : 274 Мбайт
Продолжительность : 23 м. 55 с.
Режим общего битрейта : Переменный
Общий поток : 1600 Кбит/сек
Максимальный общий битрейт : 3912 Кбит/сек
Название фильма : 勝負師伝説 哲也 DVD 第01話 「牌の魔術師」
Трек/Положение : 0
Дата кодирования : UTC 2004-05-14 23:16:23.514
Примечание : 映像:VBR Q93 24fps 音声:VBR192kbps 2Pass 48kHz
Видео
Идентификатор : 2
Формат : VC-1
Профиль формата : MP@ML
Идентификатор кодека : WMV3
Идентификатор кодека/Информация : Windows Media Video 9
Идентификатор кодека/Подсказка : WMV3
Описание кодека : Windows Media Video 9
Продолжительность : 23 м. 55 с.
Вид битрейта : Переменный
Битрейт : 1395 Кбит/сек
Ширина : 640 пикселей
Высота : 480 пикселей
Соотношение сторон : 4:3
Частота кадров : 23,976 (23976/1000) кадра/сек
Цветовое пространство : YUV
Субдискретизация насыщенности : 4:2:0
Битовая глубина : 8 бит
Тип развёртки : Прогрессивная
Метод сжатия : С потерями
Бит/(Пиксели*Кадры) : 0.189
Размер потока : 239 Мбайт (87%)
Язык : Japanese
Аудио
Идентификатор : 1
Формат : WMA
Профиль формата : Pro
Идентификатор кодека : 162
Идентификатор кодека/Информация : Windows Media Audio
Описание кодека : Windows Media Audio 9 Professional - 192 kbps, 48 kHz, 2 channel 24 bit 2-pass VBR
Продолжительность : 23 м. 55 с.
Вид битрейта : Переменный
Битрейт : 188 Кбит/сек
Каналы : 2 канала
Частота : 48,0 КГц
Битовая глубина : 24 бит
Размер потока : 32,2 Мбайт (12%)
Язык : Japanese

Отличия
 
Отличие этой раздачи от http://SKYTRACKER.XYZ/viewtopic.php?t=2833270 — отсутствие хардсаба.

Обложки DVD-боксов
  К сожалению только для ознакомления, т.к. разрешение маловато  






Зарегистрирован:
  • 22-Ноя-16 00:04
  • Скачан: 274 раза

Скачать .torrent

27 KB

Тип: обычная
Статус: проверено
Размер: 4.83 GB  ·  magnetB2A124F4DF4688727DFC4B3B29E4C45634C79D6C
  • Свернуть поддиректории
  • Развернуть
  • Переключить
  • Увел./умен. окно
загружается...
 |   | 

Ich Lauf

VIP (Заслуженный)

Стаж: 9 лет 11 месяцев

Сообщений: 11562

Ich Lauf · 22-Ноя-16 10:13 (спустя 10 часов)

В заголовок надо добавить main title с анидб Gambler Densetsu Tetsuya. Также нужен отчет МИ на первую серию в оформлении http://SKYTRACKER.XYZ/viewtopic.php?t=1907922#MediaInfo
Отсутствую.

jhyyz

Стаж: 9 лет 8 месяцев

Сообщений: 241

flag

jhyyz · 26-Ноя-16 14:23 (спустя 4 дня)

Рекомендую к просмотру
Демонстрация жульнических техник из аниме живыми актерами.
Не стал добавлять в раздачу, т.к. переводов нет, но смотреть всё равно интересно.
Вышло 7 серий, по одной на каждом DVD-диске.
1: https://www.youtube.com/watch?v=TTQKKJiSrI8
2: https://www.youtube.com/watch?v=-ul-8lVIl2c
3: https://www.youtube.com/watch?v=GTfYmiIhm6o
4: https://www.youtube.com/watch?v=nGbQqh3jrDE
5: https://www.youtube.com/watch?v=f5JepWaL7CM
6: https://www.youtube.com/watch?v=dJoUnUSLrMk
7: https://www.youtube.com/watch?v=D7WEjlgXXFI
Плей-листа на них нет, поэтому ссылка на канал: https://www.youtube.com/channel/UC5uF2CT1agRC1f4UfwHP3kw
 |   | 

Alukard7777

Стаж: 9 лет 3 месяца

Сообщений: 62

flag

Alukard7777 · 16-Апр-18 17:15 (спустя 1 год 4 месяца)

Не Акаги, конечно, но сериал вполне себе неплох. Рекомендую фанатам маджонга и в целом азартных игр.

nev3rh00d

Стаж: 9 лет 2 месяца

Сообщений: 78

flag

nev3rh00d · 16-Авг-18 08:33 (спустя 3 месяца 29 дней)

Акаги другого полета птица. Аниме достойное внимания. Спасибо за раздачу.
 
All rights reserved © 2017-2018
Loading...
Error