—во€ игра (Ёфир от 03.06.2017) [2017, »нтеллектуальное шоу, HDTV 1080i]

—татистика раздачи
–азмер:  3.68 GB   |   «арегистрирован:  1 год 3 мес€ца   |   .torrent скачан:  234 раза

ѕолный источник: не было 4 дн€

јвтор
—ообщение

kuzmichm2196

RG ƒокументалисты

—таж: 8 лет 7 мес€цев

—ообщений: 2142

flag

kuzmichm2196 · 04-»юн-17 08:00 (1 год 3 мес€ца назад)

 

—во€ игра (Ёфир от 03.06.2017)
ƒата/√од выпуска: 2017
—трана: –осси€
∆анр: »нтеллектуальное шоу
ѕродолжительность: 00:40:38
ѕеревод: Ќе требуетс€
¬едущий: ѕетр  улешов
ќписание: Ђ—во€ играї Ч российский вариант всемирно известной телеигры ЂJeopardy!ї. Ёто одна из немногих по-насто€щему интеллектуальных игр на российском телевидении.
¬ каждом выпуске программы место за игровыми пультами занимают три интеллектуала. »м предстоит отвечать на вопросы из различных областей знаний.  аждый вопрос имеет свою стоимость. ≈сли участник дает верный ответ, сумма переходит к нему на счет, если ошибаетс€ Ч очки снимаютс€. ѕо ходу игры лидеры могут мен€тьс€ несколько раз, ведь стрем€щиес€ к победе люди готовы рисковать, лишь бы вырватьс€ вперед.
Ђ—во€ играї Ч отличный способ проверить свои знани€, открыть дл€ себ€ что-то новое и понаблюдать за азартной борьбой интеллектуалов!
 ачество: HDTV 1080i
 онтейнер: TS
¬идео кодек: H.264
јудио кодек: MP2
¬идео: H264; 1920x1080 (16:9); 25.000 fps; ~12100 Kbps
јудио: MPEG Audio 48000Hz stereo 192  бит/сек
MediaInfo
G:\—во€ игра 03.06.2017.ts
General #1
ID : 1 (0x1)
Complete name : G:\—во€ игра 03.06.2017.ts
Format : MPEG-TS
File size : 3.68 GiB
Duration : 40mn 38s
Overall bit rate mode : Variable
Overall bit rate : 13.0 Mbps
Video #201
ID : 201 (0xC9)
Menu ID : 2201 (0x899)
Format : AVC
Format/Info : Advanced Video Codec
Format profile : High@L4.0
Format settings, CABAC : Yes
Format settings, ReFrames : 4 frames
Codec ID : 27
Duration : 40mn 38s
Bit rate : 12.1 Mbps
Width : 1 920 pixels
Height : 1 080 pixels
Display aspect ratio : 16:9
Frame rate : 25.000 fps
Standard : Component
Color space : YUV
Chroma subsampling : 4:2:0
Bit depth : 8 bits
Scan type : Interlaced
Scan order : Top Field First
Bits/(Pixel*Frame) : 0.234
Stream size : 3.45 GiB (94%)
Color primaries : BT.709
Transfer characteristics : BT.709
Matrix coefficients : BT.709
Audio #301
ID : 301 (0x12D)
Menu ID : 2201 (0x899)
Format : MPEG Audio
Format version : Version 1
Format profile : Layer 2
Codec ID : 3
Duration : 40mn 38s
Bit rate mode : Constant
Bit rate : 192 Kbps
Channel(s) : 2 channels
Sampling rate : 48.0 KHz
Compression mode : Lossy
Stream size : 55.8 MiB (1%)
Language : Russian
—криншоты
«арегистрирован:
  • 04-»юн-17 08:00
  • —качан: 234 раза

—качать .torrent

19 KB

“ип: обычна€
—татус: проверено
–азмер: 3.68 GB  ·  magnetEC4C890B78E2ADE6FB265726206ACC5BB74E184E
  • —вернуть поддиректории
  • –азвернуть
  • ѕереключить
  • ”вел./умен. окно
загружаетс€...
 
All rights reserved © 2017-2018
Loading...
Error