Вся правда о рыцарях-тамплиерах (Вся правда о тамплиерах) / La vérité sur les templiers (Матье Прадино / Mathieu Pradinaud) [2013, Документальный, HDTV 1080i] 2xRUS

Статистика раздачи
Размер:  2.91 GB   |   Зарегистрирован:  1 год 3 месяца   |   .torrent скачан:  1,173 раза
Сиды:  4   Личи:  1
Автор
Сообщение

Last Battle

Top User 06

Стаж: 11 лет 3 месяца

Сообщений: 734

flag

Last Battle · 06-Июн-17 23:07 (1 год 3 месяца назад, ред. 06-Июн-17 23:08)

 

Вся правда о рыцарях-тамплиерах (Вся правда о тамплиерах) / La vérité sur les templiers
Год выпуска: 2013
Страна: Франция
Студия: Gedeon Programmes, Histoire, France 3, Ile de France, TV5 Monde
Жанр: Документальный
Продолжительность: 00:51:20
Перевод: Профессиональный (двухголосый закадровый)
Доп. инфо о переводе: 1. SDI-Media и 2. Видеофильм ТВ
Русские субтитры: нет
Режиссер: Матье Прадино / Mathieu Pradinaud
Описание: Могущественный орден рыцарей-храмовников, воинов-монахов, участвовавших в крестовых походах, возник в 1118 г. в Иерусалиме якобы для защиты христиан-паломников, пожелавших посетить Святую землю. За неполных два столетия тамплиеры заслужили репутацию отважных и беспощадных воинов. Жестокая расправа над тамплиерами французского короля Филиппа IV Красивого и Папы Клемента V, причины которой не выяснены по сей день, окутала историю ордена аурой таинственности. С ним связывали практически все мистические явления: от основания масонства до поисков Ноева ковчега. Какова же настоящая история их появления и гибели?
Доп. информация: Релиз
и
Сэмпл: http://multi-up.com/1156942
Тип релиза: HDTV 1080i
Контейнер: TS
Видео: 1920x1080 at 25.000 fps, MPEG-4 AVC, ~7145 kbps avg
Аудио: Русский: 48 kHz, AC3, 2/0 (L,R) ch, ~192.00 kbps avg |Двухголосый закадровый, SDI-Media по заказу ТПО Red Media|
Аудио 2: Русский: 48 kHz, AC3, 2/0 (L,R) ch, ~192.00 kbps avg |Двухголосый закадровый, Видеофильм ТВ|
Аудио 3: French: 48 kHz, AC3, 2/0 (L,R) ch, ~192.00 kbps avg
MediaInfo
Общее
Идентификатор : 1 (0x1)
Полное имя : La.verite.sur.les.Templiers.(2013).1080i.HDTV.2xRus.Fre_HDCLUB.ts
Формат : MPEG-TS
Размер файла : 2,91 Гбайт
Продолжительность : 51 м. 19 с.
Режим общего битрейта : Переменный
Общий поток : 8129 Кбит/сек
Максимальный общий битрейт : 35,5 Мбит/сек
Видео
Идентификатор : 4113 (0x1011)
Идентификатор меню : 1 (0x1)
Формат : AVC
Формат/Информация : Advanced Video Codec
Профиль формата : High@L4
Параметр CABAC формата : Да
Параметр ReFrames формата : 3 кадра
Идентификатор кодека : 27
Продолжительность : 51 м. 19 с.
Вид битрейта : Переменный
Битрейт : 7145 Кбит/сек
Максимальный битрейт : 40,0 Мбит/сек
Ширина : 1920 пикселей
Высота : 1080 пикселей
Соотношение сторон : 16:9
Частота кадров : 25,000 кадров/сек
Стандарт вещания : Component
Цветовое пространство : YUV
Субдискретизация насыщенности : 4:2:0
Битовая глубина : 8 бит
Тип развёртки : Чересстрочная
Метод сохранения типа развёртки : Раздельные поля
Порядок развёртки : Верхнее поле первое
Бит/(Пиксели*Кадры) : 0.138
Размер потока : 2,56 Гбайт (88%)
Цветовой диапазон : Limited
Основные цвета : BT.709
Характеристики трансфера : BT.709
Коэффициенты матрицы : BT.709
Аудио #1
Идентификатор : 4352 (0x1100)
Идентификатор меню : 1 (0x1)
Формат : AC-3
Формат/Информация : Audio Coding 3
Расширение режима : CM (complete main)
Параметр Endianness формата : Big
Идентификатор кодека : 129
Продолжительность : 51 м. 19 с.
Вид битрейта : Постоянный
Битрейт : 192 Кбит/сек
Каналы : 2 канала
Расположение каналов : Front: L R
Частота : 48,0 КГц
Частота кадров : 31,250 кадров/сек (1536 spf)
Битовая глубина : 16 бит
Метод сжатия : С потерями
Размер потока : 70,5 Мбайт (2%)
Язык : Russian
Аудио #2
Идентификатор : 4353 (0x1101)
Идентификатор меню : 1 (0x1)
Формат : AC-3
Формат/Информация : Audio Coding 3
Расширение режима : CM (complete main)
Параметр Endianness формата : Big
Идентификатор кодека : 129
Продолжительность : 51 м. 19 с.
Вид битрейта : Постоянный
Битрейт : 192 Кбит/сек
Каналы : 2 канала
Расположение каналов : Front: L R
Частота : 48,0 КГц
Частота кадров : 31,250 кадров/сек (1536 spf)
Битовая глубина : 16 бит
Метод сжатия : С потерями
Размер потока : 70,5 Мбайт (2%)
Язык : Russian
Аудио #3
Идентификатор : 4354 (0x1102)
Идентификатор меню : 1 (0x1)
Формат : AC-3
Формат/Информация : Audio Coding 3
Расширение режима : CM (complete main)
Параметр Endianness формата : Big
Идентификатор кодека : 129
Продолжительность : 51 м. 19 с.
Вид битрейта : Постоянный
Битрейт : 192 Кбит/сек
Каналы : 2 канала
Расположение каналов : Front: L R
Частота : 48,0 КГц
Частота кадров : 31,250 кадров/сек (1536 spf)
Битовая глубина : 16 бит
Метод сжатия : С потерями
Размер потока : 70,5 Мбайт (2%)
Язык : French
Скриншоты
Зарегистрирован:
  • 06-Июн-17 23:07
  • Скачан: 1,173 раза

Скачать .torrent

15 KB

Тип: обычная
Статус: проверено
Размер: 2.91 GB  ·  magnetB163596B8E157B91D78AAC5349F7354D38AD659B
  • Свернуть поддиректории
  • Развернуть
  • Переключить
  • Увел./умен. окно
загружается...

Скачал - отдай!
Не будь жлобом, делись с другими
Сиды и пиры с открытым портом приветствуются!
 
All rights reserved © 2017-2018
Loading...
Error