Ева Браун: Жизнь и смерть с фюрером (2 серии из 2) / Eva Braun: Life and Death with the Fuhrer (Михаэль Клофт / Michael Kloft) [2015, Документальный, война, история, биография, HDTVRip 720p]

Статистика раздачи
Размер:  2.34 GB   |   Зарегистрирован:  10 месяцев   |   .torrent скачан:  353 раза

Полный источник: не было 5 дней

Автор
Сообщение

Alf62

Стаж: 10 лет 1 месяц

Сообщений: 2848

flag

Alf62 · 03-Ноя-17 20:24 (10 месяцев назад, ред. 03-Ноя-17 20:27)

 

Ева Браун: Жизнь и смерть с фюрером (2 серии из 2) / Eva Braun: Life and Death with the Fuhrer
Год выпуска: 2015
Страна: Германия
Студия: SPIEGEL TV GmbH
Жанр: Документальный, война, история, биография
Продолжительность: 2 х ~ 00:45:30
Перевод: Профессиональный (дублированный)
Режиссер: Михаэль Клофт / Michael Kloft
Описание: По словам ее биографа, за преувеличенным оптимизмом Евы Браун стояла решительная женщина, которая до самой смерти шла к своей цели. Она свела счеты с жизнью в бункере под рейхсканцелярией в Берлине вместе с Адольфом Гитлером 30 апреля 1945 года. За день до этого Ева Браун, которая много лет была его любовницей, вышла за Гитлера замуж.
Доп. информация: Авторство релиза - alf62

Тип релиза: HDTVRip 720p
Контейнер: MKV
Видео: MPEG-4 AVC, ~3500 Кбит/с, 1280х720, (16:9), 25.000 fps
Аудио: Русский, AC3, 2 ch, 192 Кбит/сЕва Браун: Жизнь и смерть с фюрером на SKYTRACKER.cr
MediaInfo
233891621699213401260877429212760894816 (0xAFF5E346AD105C63891F6D3FC559ED60)
Полное имя : E:\Ева Браун Жизнь и смерть с фюрером\Ева.Браун.Жизнь.и.смерть.с.фюрером.(2.серии).2015.HDTVRip.720p.alf62\Ева.Браун.Жизнь.и.смерть.с.фюрером.(1.серия).2015.HDTVRip.720p.alf62.mkv
Формат : Matroska
Версия формата : Version 2
Размер файла : 1,16 Гбайт
Продолжительность : 44 м.
Общий поток : 3693 Кбит/сек
Дата кодирования : UTC 2017-11-02 21:18:11
Программа кодирования : mkvmerge v7.8.0 ('River Man') 32bit built on Apr 3 2015 12:11:22
Библиотека кодирования : libebml v1.3.1 + libmatroska v1.4.2
Видео
Идентификатор : 1
Формат : AVC
Формат/Информация : Advanced Video Codec
Профиль формата : High@L4.1
Параметр CABAC формата : Да
Параметр ReFrames формата : 16 кадров
Идентификатор кодека : V_MPEG4/ISO/AVC
Продолжительность : 44 м.
Битрейт : 3500 Кбит/сек
Ширина : 1280 пикселей
Высота : 720 пикселей
Соотношение сторон : 16:9
Режим частоты кадров : Постоянный
Частота кадров : 25,000 кадров/сек
Цветовое пространство : YUV
Субдискретизация насыщенности : 4:2:0
Битовая глубина : 8 бит
Тип развёртки : Прогрессивная
Бит/(Пиксели*Кадры) : 0.152
Размер потока : 1,08 Гбайт (93%)
Библиотека кодирования : x264 core 146 r2538 121396c
Настройки программы : cabac=1 / ref=16 / deblock=1:-1:-1 / analyse=0x3:0x113 / me=umh / subme=10 / psy=1 / psy_rd=1.00:0.00 / mixed_ref=1 / me_range=32 / chroma_me=1 / trellis=2 / 8x8dct=1 / cqm=0 / deadzone=21,11 / fast_pskip=0 / chroma_qp_offset=-2 / threads=6 / lookahead_threads=1 / sliced_threads=0 / nr=0 / decimate=0 / interlaced=0 / bluray_compat=0 / constrained_intra=0 / bframes=8 / b_pyramid=2 / b_adapt=2 / b_bias=0 / direct=3 / weightb=1 / open_gop=0 / weightp=2 / keyint=250 / keyint_min=25 / scenecut=40 / intra_refresh=0 / rc_lookahead=40 / rc=2pass / mbtree=1 / bitrate=3500 / ratetol=1.0 / qcomp=0.60 / qpmin=10 / qpmax=51 / qpstep=4 / cplxblur=20.0 / qblur=0.5 / vbv_maxrate=14000 / vbv_bufsize=14000 / nal_hrd=none / filler=0 / ip_ratio=1.40 / aq=1:0.80
Default : Да
Forced : Нет
Аудио
Идентификатор : 2
Формат : AC-3
Формат/Информация : Audio Coding 3
Расширение режима : CM (complete main)
Параметр Endianness формата : Big
Идентификатор кодека : A_AC3
Продолжительность : 44 м.
Вид битрейта : Постоянный
Битрейт : 192 Кбит/сек
Каналы : 2 канала
Расположение каналов : Front: L R
Частота : 48,0 КГц
Битовая глубина : 16 бит
Метод сжатия : С потерями
Размер потока : 61,8 Мбайт (5%)
Default : Да
Forced : Нет
Скриншоты
Зарегистрирован:
  • 03-Ноя-17 20:24
  • Скачан: 353 раза

Скачать .torrent

12 KB

Тип: обычная
Статус: # сомнительно
Размер: 2.34 GB  ·  magnetC6FCDE67F4CE1CEA6E2D28EF859199C1892618EC
  • Свернуть поддиректории
  • Развернуть
  • Переключить
  • Увел./умен. окно
загружается...

anbelk27

Admin gray

Стаж: 9 лет 5 месяцев

Сообщений: 6051

flag

anbelk27 · 10-Дек-17 22:08 (спустя 1 месяц 7 дней)

Alf62 писал(а):
74150181Видео: MPEG-4 AVC, ~3500 Кбит/с, 1280х720
Alf62 писал(а):
74150181Параметр ReFrames формата : 16 кадров
# сомнительно
 
All rights reserved © 2017-2018
Loading...
Error