Александр Великий (Александр Македонский) (2 серии из 2) / Alexander der Große / Alexander the Great (Мартин Казаро Мендез, Кристиан Твенте) [2014, Документально-игровой, биография, история, HDTVRip 720p]

Статистика раздачи
Размер:  2.55 GB   |   Зарегистрирован:  6 месяцев   |   .torrent скачан:  367 раз

Полный источник: был сегодня

Автор
Сообщение

Alf62

Стаж: 10 лет 1 месяц

Сообщений: 2835

flag

Alf62 · 16-Мар-18 22:41 (6 месяцев назад, ред. 16-Мар-18 22:45)

 

Александр Великий (Александр Македонский) (2 серии из 2) / Alexander der Große / Alexander the Great
Год выпуска: 2014
Страна: Германия, ZDF Enterprises, Atlantis Film
Жанр: Документально-игровой, биография, история
Продолжительность: 2 x ~ 00:43:33
Перевод: Студийный (одноголосый закадровый)
Доп. инфо о переводе: SDI Media
Режиссер: Мартин Казаро Мендез, Кристиан Твенте
Описание: Александр Великий - один из самых блестящих и загадочных полководцев всех времен. В тридцать лет он правил одной из крупнейших империй в истории. Попробуем разобраться, зачем Александр покорял дальние страны. Кто он? Гениальный полководец или кровожадный тиран? Человек-легенда. Но, в итоге, не сделался ли властолюбивый Александр злейшим врагом самому себе? Казалось бы, без особых усилий, македонец создал самую большую империю древности в течение одиннадцати лет. После его ранней смерти в 323 г. до н.э., империя Александра распадается в течение короткого промежутка времени. Но имперская идея повлияла на последующую историю Европы, от Цезаря до Наполеона и за его пределами.
Биография легендарного полководца, одного из самых могущественных правителей всех времен, создателя мировой державы.
Доп. информация: Авторство релиза - alf62

Тип релиза: HDTVRip 720p
Контейнер: MKV
Видео: MPEG-4 AVC, ~4000 Кбит/с, 1280х720, (16:9), 25.000 fps
Аудио: Русский, AC3, 2 ch, 192 Кбит/сАлександр Великий (Александр Македонский) / Alexander der Große / Alexander the Great на SKYTRACKER.cr
Список выпусков/серий
1. Путь к власти / The Path to Power
Первая часть документального фильма посвящена детству и юности Александра Великого. Рожденный в Македонии в 356 году до н.э. в качестве члена династии Аргеад, он сменил своего отца Филиппа II на престол в возрасте двадцати лет. Но королевство, унаследованное Александром, было изменчивым. Как ему удалось победить своих врагов дома? И каковы были его средства для восстановления власти Македонии в Греции?
2. До конца мира / Until the End of the World
В втором эпизоде фильма – «До края света» мы узнаем о завоеваниях Александра. Александр и его войска идут через Малую Азию, Египет, Персию и Пакистан в Индию – «конец» известного тогда мира
MediaInfo
Общее
Уникальный идентификатор : 222854485823241812436992642785051679369 (0xA7A83676B4932F328D4C7C7B72AC1A89)
Полное имя : E:\Александр.Македонский.(2.серии).2014.HDTVRip.720p.alf62\Александр.Македонский.(1.серия).Путь.к.власти.2014.HDTVRip.720p.alf62.mkv
Формат : Matroska
Версия формата : Version 4 / Version 2
Размер файла : 1,28 Гбайт
Продолжительность : 43 м.
Общий поток : 4194 Кбит/сек
Дата кодирования : UTC 2018-03-14 12:58:13
Программа кодирования : mkvmerge v6.6.0 ('The Edge Of The In Between') built on Dec 1 2013 17:55:00
Библиотека кодирования : libebml v1.3.0 + libmatroska v1.4.1
Видео
Идентификатор : 1
Формат : AVC
Формат/Информация : Advanced Video Codec
Профиль формата : High@L4.1
Параметр CABAC формата : Да
Параметр ReFrames формата : 8 кадров
Идентификатор кодека : V_MPEG4/ISO/AVC
Продолжительность : 43 м.
Битрейт : 4000 Кбит/сек
Ширина : 1280 пикселей
Высота : 720 пикселей
Соотношение сторон : 16:9
Режим частоты кадров : Постоянный
Частота кадров : 25,000 кадров/сек
Цветовое пространство : YUV
Субдискретизация насыщенности : 4:2:0
Битовая глубина : 8 бит
Тип развёртки : Прогрессивная
Бит/(Пиксели*Кадры) : 0.174
Размер потока : 1,19 Гбайт (93%)
Библиотека кодирования : x264 core 146 r2538 121396c
Настройки программы : cabac=1 / ref=8 / deblock=1:-1:-1 / analyse=0x3:0x113 / me=umh / subme=10 / psy=1 / psy_rd=1.00:0.00 / mixed_ref=1 / me_range=32 / chroma_me=1 / trellis=2 / 8x8dct=1 / cqm=0 / deadzone=21,11 / fast_pskip=0 / chroma_qp_offset=-2 / threads=6 / lookahead_threads=1 / sliced_threads=0 / nr=0 / decimate=0 / interlaced=0 / bluray_compat=0 / constrained_intra=0 / bframes=8 / b_pyramid=2 / b_adapt=2 / b_bias=0 / direct=3 / weightb=1 / open_gop=0 / weightp=2 / keyint=250 / keyint_min=25 / scenecut=40 / intra_refresh=0 / rc_lookahead=40 / rc=2pass / mbtree=1 / bitrate=4000 / ratetol=1.0 / qcomp=0.60 / qpmin=10 / qpmax=51 / qpstep=4 / cplxblur=20.0 / qblur=0.5 / vbv_maxrate=14000 / vbv_bufsize=14000 / nal_hrd=none / filler=0 / ip_ratio=1.40 / aq=1:0.80
Default : Да
Forced : Нет
Аудио
Идентификатор : 2
Формат : AC-3
Формат/Информация : Audio Coding 3
Расширение режима : CM (complete main)
Параметр Endianness формата : Big
Идентификатор кодека : A_AC3
Продолжительность : 43 м.
Вид битрейта : Постоянный
Битрейт : 192 Кбит/сек
Каналы : 2 канала
Расположение каналов : Front: L R
Частота : 48,0 КГц
Битовая глубина : 16 бит
Метод сжатия : С потерями
Размер потока : 59,8 Мбайт (5%)
Default : Да
Forced : Нет
Зарегистрирован:
  • 16-Мар-18 22:41
  • Скачан: 367 раз

Скачать .torrent

13 KB

Тип: обычная
Статус: проверено
Размер: 2.55 GB  ·  magnet7AF93A59E9220697A2FA485403F890BA1991407C
  • Свернуть поддиректории
  • Развернуть
  • Переключить
  • Увел./умен. окно
загружается...

Alexey17

Top Loader 01* 100GB

Стаж: 12 лет 6 месяцев

Сообщений: 750

Alexey17 · 16-Июн-18 16:47 (спустя 2 месяца 30 дней)

http://SKYTRACKER.XYZ/viewtopic.php?t=1285028
тут 3 серии - может 2 из 3 ?

architector_max

Стаж: 8 лет 7 месяцев

Сообщений: 1


architector_max · 10-Авг-18 15:57 (спустя 1 месяц 23 дня)

Alexey17 писал(а):
75515988http://SKYTRACKER.XYZ/viewtopic.php?t=1285028
тут 3 серии - может 2 из 3 ?
Это же другой фильм.
 
All rights reserved © 2017-2018
Loading...
Error