В пустыне смерти / Into the Badlands / Сезон: 3 / Серии: 1-8 из 16 (Дэвид Добкин) [2018, США, Боевик, драма, приключения, экранизация, WEB-DLRip] DVO (Gears Media) + Original

Статистика раздачи
Размер:  4.22 GB   |   Зарегистрирован:  2 месяца 27 дней   |   .torrent скачан:  357 раз
Сиды:  4
Автор
Сообщение

T_A_R

Стаж: 6 лет 5 месяцев

Сообщений: 661

flag

T_A_R · 26-Апр-18 20:24 (4 месяца 22 дня назад, ред. 21-Июн-18 04:29)

 

В пустыне смерти / Into the Badlands
Год выпуска: 2018
Страна: США
Жанр: Боевик, драма, приключения, экранизация
Продолжительность: ~ 00:43:00
Перевод: Профессиональный (двухголосый закадровый) Gears Media
Режиссёры: Дэвид Добкин
В ролях: Эмили Бичем, Сара Болгер, Орла Брэйди, Мартон Чокаш, Элли Иоаннидес, Арамис Найт, Мадлен Манток, Майкл Сил, Оливер Старк, Дэниэл Ву и др.
Описание: Приключенческий боевик о двух друзьях. В пустыне смерти, какие испытания предстоит пройти главным героям на пути просвещения. Ради обретения высшей мудрости мастер боевых искусств Санни и его юный напарник решают пройти через неизведанные земли. Они знают, что там их будут встречать враждебно, но ради высшей цели главные герои готовы вынести всё. В основу сюжета сериала был положен китайский роман под названием «Путешествие на Запад». Во время путешествия Санни покажет в полной мере своё мастерство, а его юный друг сможет многому научиться, и владению собственным телом, и контролю над собственным духом.
Ссылка на предыдущие и альтернативные раздачи: http://SKYTRACKER.XYZ/tracker.php?g=foreign_serials&nm=Into+the+Badlands
Сэмпл: http://multi-up.com/1196288
Качество: WEB-DLRip
Формат: AVI
Видео: XviD, 720x400 at 23.976 fps, ~1500 kbps avg
Аудио1: Russian, MP3, 48 kHz, 2 ch, 128 kbps
Аудио2: English, MP3, 48 kHz, 2 ch, 128 kbps
Субтитры: нет
Реклама: аудио (два раза, в начале и конце, по 12 сек.)
MediaInfo
Format : AVI
Format/Info : Audio Video Interleave
File size : 536 MiB
Duration : 42 min 34 s
Overall bit rate : 1 759 kb/s
Writing application : Lavf56.30.100
Video
ID : 0
Format : xvid
Codec ID : xvid
Duration : 42 min 34 s
Bit rate : 1 482 kb/s
Width : 720 pixels
Height : 400 pixels
Display aspect ratio : 16:9
Frame rate : 23.976 (24000/1001) FPS
Scan type : Progressive
Bits/(Pixel*Frame) : 0.215
Stream size : 451 MiB (84%)
Audio #1
ID : 1
Format : MPEG Audio
Format version : Version 1
Format profile : Layer 3
Format settings : Joint stereo / MS Stereo
Codec ID : 55
Codec ID/Hint : MP3
Duration : 42 min 34 s
Bit rate mode : Constant
Bit rate : 128 kb/s
Channel(s) : 2 channels
Sampling rate : 48.0 kHz
Compression mode : Lossy
Stream size : 39.0 MiB (7%)
Alignment : Aligned on interleaves
Interleave, duration : 24 ms (0.58 video frame)
Interleave, preload duratio : 24 ms
Title : Gears Media
Writing library : LAME3.99.5ЄЄЄЄЄЄЄЄЄЄ
Audio #2
ID : 2
Format : MPEG Audio
Format version : Version 1
Format profile : Layer 3
Format settings : Joint stereo / MS Stereo
Codec ID : 55
Codec ID/Hint : MP3
Duration : 42 min 34 s
Bit rate mode : Constant
Bit rate : 128 kb/s
Channel(s) : 2 channels
Sampling rate : 48.0 kHz
Compression mode : Lossy
Stream size : 39.0 MiB (7%)
Alignment : Aligned on interleaves
Interleave, duration : 24 ms (0.58 video frame)
Interleave, preload duratio : 24 ms
Writing library : LAME3.99.
Скриншоты
Внимание! Раздача ведётся путём добавления новых серий
Внимание! Раздача ведётся путём добавления новых серий; при каждом добавлении создаётся новый торрент. Чтобы начать докачку новой серии, пользователям необходимо сделать следующее:
(1) остановить скачивание,
(2) удалить старый торрент у себя из клиента (старые серии удалять не надо),
(3) скачать новый торрент и запустить его у себя в клиенте вместо старого, при этом указать клиенту путь в старую папку куда и должно происходить скачивание новых серий.
Ваш клиент при этом должен произвести хеширование (проверку) старой папки (если не производит сам - помогите ему сделать это), и будет докачивать только те серии которых у вас ещё нет. Старые серии при этом не удаляются, а продолжают раздаваться!
Eсли вы уже удалили старые серии, то предотвратить повторную закачку старых серий можно, отжав галочку в соответствующих местах при запуске нового торрента. По возможности, желательно не удалять старые серии как можно дольше чтобы релизёр не столько продолжал раздавать старые серии, а смог сконцентрироваться на новых.
Зарегистрирован:
  • 21-Июн-18 04:29
  • Скачан: 357 раз
Скачать .torrent через uBar.pro

Скачать .torrent

22 KB

Тип: обычная
Статус: # сомнительно
Размер: 4.22 GB  ·  magnet4CE02348763019C5F459CCFF03DA594BCBBB6D9E
  • Свернуть поддиректории
  • Развернуть
  • Переключить
  • Увел./умен. окно
загружается...

Celta88

Помощник модератора

Стаж: 9 лет 4 месяца

Сообщений: 4161

flag

Celta88 · 27-Апр-18 00:15 (спустя 3 часа)

Реклама: аудио (два раза, в начале и конце, по 12 сек.) + нет настроек кодирования + чёрные полосы справа и слева
Критерии присвоения статусов # (сомнительно) и Т (временная).
# сомнительно
Правила раздела Зарубежные сериалы
Методы обхода блокировки
Чемпионат Мира по футболу 2018

Если в моих раздачах отсутствуют сиды - напишите об этом в комментариях!

bot · 27-Апр-18 00:15 (спустя 20 сек.)

Тема была перенесена из форума Зарубежные сериалы в форум Новинки и сериалы в стадии показа
Celta88
 
 
All rights reserved © 2017-2018
Loading...
Error