База Куантико / Quantico / Сезон: 3 / Серии: 1-12 из 13 (Дженнифер Чэмберс Линч) [2018, США, триллер, драма, криминал, детектив, WEBRip] MVO (Baibako) + Original

Статистика раздачи
Размер:  10.01 GB   |   Зарегистрирован:  1 месяц 21 день   |   .torrent скачан:  331 раз
Сиды:  4
Автор
Сообщение

kogesan

Стаж: 10 лет 4 месяца

Сообщений: 493

flag

kogesan · 27-Апр-18 23:07 (4 месяца 21 день назад, ред. 29-Июл-18 14:33)

 

База Куантико / Quantico«The FBI's top recruit is now their most wanted»
Страна: США
Год выпуска: 2018
Жанр: триллер, драма, криминал, детектив
Продолжительность: ~ 00:43,:00 мин серия
Перевод: Любительский (многоголосый закадровый) |Baibako|
Премьера (мир): 27 сентября 2015
Премьера (РФ): 29 октября 2015
Режиссер: Дженнифер Чэмберс Линч, Патрик Р. Норрис, Дэвид МакУиртер
В главных ролях: Приянка Чопра, Джейк МакЛафлин, Джоанна Э. Брэдди, Онжаню Эллис, Ясмин Эл Массри, Блэр Андервуд, Грэхэм Роджерс, Джош Хопкинс, Тейт Эллингтон, Рассел Тови
Описание фильма:
Шесть совершенно разных новобранцев поступают на стажировку в ФБР на базу Куантико в штате Вирджиния. Базой руководит Миранда Шоу, первая женщина на высшей должности в ФБР. Миранда объединяется со своим бывшим партнером, Лиамом О`Коннором, который ныне работает советником, чтобы отобрать лучших новобранцев в агенты. Тем не менее в будущем один из новобранцев будет подозреваемым в планировании крупнейшего с 11 сентября террористического акта по Нью-Йорку.

Предыдущие и альтернативные раздачи


Качество видео: WEBRip
Формат: AVI
Видео: XviD, 720x400 (16:9), 23.976 fps, ~2000 kbps, 0.29 Bits/Pixel
Аудио Rus: AC-3, 48,0 kHz, 6 ch, 384 kb/s |Baibako|
Аудио Eng: AC-3, 48,0 kHz, 6 ch, 384 kb/s |Original|
Субтитры: Отсутствуют
Реклама: Отсутствует

СМОТРЕТЬ ОНЛАЙН
Список серий:
  1. Код согласия
  2. Страх и плоть
  3. Врата ада
  4. Шпионские игры
  5. Кровь Ромео
  6. Падение небес
  7. Сверхскоростной пассажирский экспресс
  8. Глубокое покрытие
  9. Страх Феаргач
  10. Нет места дома
  11. Искусство войны
  12. Призраки

  13. Ты кто?

MediaInfo:
Общее
Полное имя : E:\_Сериалы\_Сериалы\Куантико\Quantico.s03.WEBRip.Rus.Eng.BaibaKo\Quantico.s03e01.WEBRip.Rus.Eng.BaibaKo.avi
Формат : AVI
Формат/Информация : Audio Video Interleave
Размер файла : 857 Мбайт
Продолжительность : 43 м. 2 с.
Общий поток : 2784 Кбит/сек
Программа кодирования : VirtualDubMod 1.5.10.3 | www.virtualdub-fr.org || (build 2550/release)
Библиотека кодирования : VirtualDubMod build 2550/release
Видео
Идентификатор : 0
Формат : MPEG-4 Visual
Профиль формата : Advanced Simple@L5
Настройки формата : BVOP1
Параметр BVOP формата : 1
Параметр QPel формата : Нет
Параметр GMC формата : Без точки перехода
Параметр матрицы формата : Default (MPEG)
Идентификатор кодека : XVID
Идентификатор кодека/Подсказка : XviD
Продолжительность : 43 м. 2 с.
Битрейт : 2002 Кбит/сек
Ширина : 720 пикселей
Высота : 400 пикселей
Соотношение сторон : 16:9
Частота кадров : 23,976 (24000/1001) кадра/сек
Цветовое пространство : YUV
Субдискретизация насыщенности : 4:2:0
Битовая глубина : 8 бит
Тип развёртки : Прогрессивная
Метод сжатия : С потерями
Бит/(Пиксели*Кадры) : 0.290
Размер потока : 616 Мбайт (72%)
Библиотека кодирования : XviD 1.2.1 (UTC 2008-12-04)
Аудио #1
Идентификатор : 1
Формат : AC-3
Формат/Информация : Audio Coding 3
Идентификатор кодека : 2000
Продолжительность : 43 м. 2 с.
Вид битрейта : Постоянный
Битрейт : 384 Кбит/сек
Каналы : 6 каналов
Расположение каналов : Front: L C R, Side: L R, LFE
Частота : 48,0 КГц
Частота кадров : 31,250 кадров/сек (1536 SPF)
Битовая глубина : 16 бит
Метод сжатия : С потерями
Размер потока : 118 Мбайт (14%)
Выравнивание : Разделение по промежуткам
Продолжительность промежутка : 42 мс. (1,00 видеокадр)
Время предзагрузки промежутка : 500 мс.
ServiceKind/String : Complete Main
Аудио #2
Идентификатор : 2
Формат : AC-3
Формат/Информация : Audio Coding 3
Идентификатор кодека : 2000
Продолжительность : 43 м. 2 с.
Вид битрейта : Постоянный
Битрейт : 384 Кбит/сек
Каналы : 6 каналов
Расположение каналов : Front: L C R, Side: L R, LFE
Частота : 48,0 КГц
Частота кадров : 31,250 кадров/сек (1536 SPF)
Битовая глубина : 16 бит
Метод сжатия : С потерями
Размер потока : 118 Мбайт (14%)
Выравнивание : Разделение по промежуткам
Продолжительность промежутка : 42 мс. (1,00 видеокадр)
Время предзагрузки промежутка : 500 мс.
ServiceKind/String : Complete Main

Скриншоты:

Раздача ведется путем добавления новых серий
1. Открыть торрент
2. Снять галки с тех файлов торрента, которые мы не хотим закачивать. Оставляем только на нужных нам файлах (файле).
3. Нажать О.К.
В клиенте utorrent
Инструкция
1) Открыть торрент

2) Снять галки с тех файлов торрента, которые мы не хотим закачивать:
* либо вручную, снимая с каждого файла галку( скрин №1)
* либо, нажав кнопку "Снять метки (Select None)", сняв сразу со всех файлов(скрин №2)
№1

№2

Оставляем только на нужных нам файлах (файле).

3)Нажать О.К

Приятного просмотра!!!
Зарегистрирован:
  • 29-Июл-18 14:33
  • Скачан: 331 раз

Скачать .torrent

51 KB

Тип: обычная
Статус: проверено
Размер: 10.01 GB  ·  magnet2CD65798C6C383000B6623B5D477D2A20E828541
  • Свернуть поддиректории
  • Развернуть
  • Переключить
  • Увел./умен. окно
загружается...

Celta88

Помощник модератора

Стаж: 9 лет 4 месяца

Сообщений: 4165

flag

Celta88 · 27-Апр-18 23:36 (спустя 28 мин.)



проверено
Правила раздела Зарубежные сериалы
Методы обхода блокировки
Чемпионат Мира по футболу 2018

Если в моих раздачах отсутствуют сиды - напишите об этом в комментариях!

bot · 27-Апр-18 23:36 (спустя 9 сек.)

Тема была перенесена из форума Зарубежные сериалы в форум Новинки и сериалы в стадии показа
Celta88
 

kogesan

Стаж: 10 лет 4 месяца

Сообщений: 493

flag

kogesan · 08-Июл-18 17:57 (спустя 2 месяца 10 дней)

Добавлены 7я и 8я серии.

kogesan

Стаж: 10 лет 4 месяца

Сообщений: 493

flag

kogesan · 13-Июл-18 18:32 (спустя 5 дней)

Добавлена 9я серия.

kogesan

Стаж: 10 лет 4 месяца

Сообщений: 493

flag

kogesan · 29-Июл-18 14:34 (спустя 15 дней)

Добавлены 10я - 12я серии.

bot · 09-Сен-18 08:40 (спустя 1 месяц 10 дней)

Тема была перенесена из форума Новинки и сериалы в стадии показа в форум Сериалы США и Канады
Wentworth_Miller
 
 
All rights reserved © 2017-2018
Loading...
Error