Острые предметы / Sharp Objects / Сезон: 1 / Серии: 1-8 из 8 (Жан-Марк Валле) [2018, США, триллер, драма, криминал, детектив., WEB-DLRip] MVO (Jaskier) + Original

Автор
Сообщение

karta

Moderator

Стаж: 4 года 7 месяцев

Сообщений: 3409

flag

karta · 13-Июл-18 15:15 (2 месяца 12 дней назад, ред. 29-Авг-18 11:54)

 

Острые предметы |Sharp Objects
Год выпуска: 2018
Страна: США
Жанр: триллер, драма, криминал, детектив
Продолжительность: ~ 01:02:00
Перевод: Профессиональный (многоголосый закадровый) | Студия Jaskier
Режиссёр: Жан-Марк Валле
В ролях: Эми Адамс, Патриша Кларксон, Крис Мессина, Мэтт Крэйвен, Генри Черни, Мигель Сандовал, Сидни Свини и др.
Описание: Камилла Прикер, не особо удачливый репортер одной из не особо успешных газет Чикаго, мечтает о блестящей карьере. И вот девушке выпадает счастливый шанс, способный резко повысить ее журналистский статус, — Камиллу посылают корреспондентом в маленький городок, где жертвой маньяка стали несколько девочек. Камилла в этом городе родилась и выросла, но погружение в страшную реальность провинциальной жизни оборачивается для нее цепью кошмарных событий.

| Ссылка на предыдущие и альтернативные раздачи |
Качество: WEB-DLRip
Формат: AVI
Видео: XviD, ~ 1400 kbps, 720x400 (16:9), 23.976 fps
Аудио 1: MP3, 48,0 КГц, 2 ch, 128 kbps - Rus
Аудио 2: MP3, 48,0 КГц, 2 ch, 128 kbps - Eng
Субтитры: отсутствуют
Реклама: Присутствует звуковая (два раза в начале и конце по 12 сек.)
Релиз
Переведено и озвучено: студией Jaskier
MediaInfo
Код:
Общее
Полное имя                               : D:\Яскъер\Sharp Objects. Season 1 (WEB-DLRip l 400p l Jaskier)\Sharp.Objects.S01E01.WEB-DLRip.Rus.Eng.Jaskier.avi
Формат                                   : AVI
Формат/Информация                        : Audio Video Interleave
Размер файла                             : 751 Мбайт
Продолжительность                        : 1 ч. 2 м.
Общий поток                              : 1677 Кбит/сек
Программа кодирования                    : VirtualDubMod 1.5.10.3 | www.virtualdub-fr.org || (build 2550/release)
Библиотека кодирования                   : VirtualDubMod build 2550/release
Видео
Идентификатор                            : 0
Формат                                   : MPEG-4 Visual
Профиль формата                          : Advanced Simple@L5
Настройки формата                        : BVOP1 / Custom Matrix
Параметр BVOP формата                    : 1
Параметр QPel формата                    : Нет
Параметр GMC формата                     : Без точки перехода
Параметр матрицы формата                 : Выборочная
Идентификатор кодека                     : XVID
Идентификатор кодека/Подсказка           : XviD
Продолжительность                        : 1 ч. 2 м.
Битрейт                                  : 1407 Кбит/сек
Ширина                                   : 720 пикселей
Высота                                   : 400 пикселей
Соотношение сторон                       : 16:9
Частота кадров                           : 23,976 (24000/1001) кадра/сек
Частота кадров в оригинале               : 23,976 (23976/1000) кадра/сек
Цветовое пространство                    : YUV
Субдискретизация насыщенности            : 4:2:0
Битовая глубина                          : 8 бит
Тип развёртки                            : Прогрессивная
Метод сжатия                             : С потерями
Бит/(Пиксели*Кадры)                      : 0.204
Размер потока                            : 630 Мбайт (84%)
Библиотека кодирования                   : XviD 73
Аудио #1
Идентификатор                            : 1
Формат                                   : MPEG Audio
Версия формата                           : Version 1
Профиль формата                          : Layer 3
Настройки формата                        : Joint stereo / MS Stereo
Идентификатор кодека                     : 55
Идентификатор кодека/Подсказка           : MP3
Продолжительность                        : 1 ч. 2 м.
Вид битрейта                             : Постоянный
Битрейт                                  : 128 Кбит/сек
Каналы                                   : 2 канала
Частота                                  : 48,0 КГц
Метод сжатия                             : С потерями
Размер потока                            : 57,3 Мбайт (8%)
Выравнивание                             : Соединение по промежуткам
Продолжительность промежутка             : 42  мс. (1,00 видеокадр)
Время предзагрузки промежутка            : 504  мс.
Аудио #2
Идентификатор                            : 2
Формат                                   : MPEG Audio
Версия формата                           : Version 1
Профиль формата                          : Layer 3
Настройки формата                        : Joint stereo
Идентификатор кодека                     : 55
Идентификатор кодека/Подсказка           : MP3
Продолжительность                        : 1 ч. 2 м.
Вид битрейта                             : Постоянный
Битрейт                                  : 128 Кбит/сек
Каналы                                   : 2 канала
Частота                                  : 48,0 КГц
Метод сжатия                             : С потерями
Размер потока                            : 57,3 Мбайт (8%)
Выравнивание                             : Соединение по промежуткам
Продолжительность промежутка             : 42  мс. (1,00 видеокадр)
Время предзагрузки промежутка            : 504  мс.
Скриншоты
Раздача ведется путем добавления новых серий
Когда раздача ведётся путём добавления новых серий, при каждом добавлении создётся новый торрент. Чтобы начать докачку новой серии, пользователям необходимо сделать следующее:
(1) остановить скачивание,
(2) удалить старый торрент у себя из клиента (старые серии удалять не надо),
(3) скачать новый торрент и запустить его у себя в клиенте вместо старого, при этом указать клиенту путь в старую папку, куда и должно происходить скачивание новых серий.
Ваш клиент при этом должен произвести хеширование (проверку) старой папки (если не производит сам - помогите ему сделать это), и будет докачивать только те серии, которых у вас ещё нет. Старые серии при этом не удаляются, а продолжают раздаваться!
Eсли вы уже удалили старые серии, то предотвратить повторную закачку старых серий можно, отжав галочку в соответсвующих местах при запуске нового торрента. По возможности, желательно не удалять старые серии как можно дольше, чтобы релизёр не столько продолжал раздавать старые серии, а смог сконцентрироваться на новых.

Attachment
Dum spiro, spero

Celta88

Помощник модератора

Стаж: 9 лет 4 месяца

Сообщений: 4231

flag

Celta88 · 13-Июл-18 17:58 (спустя 2 часа 43 мин.)

Цитата:
Реклама: Присутствует звуковая (два раза в начале и конце по 12 сек.)
ПРАВИЛО О РЕКЛАМЕ (01.11.2016)
T временная
Правила раздела Зарубежные сериалы
Методы обхода блокировки
Чемпионат Мира по футболу 2018

Если в моих раздачах отсутствуют сиды - напишите об этом в комментариях!

karta

Moderator

Стаж: 4 года 7 месяцев

Сообщений: 3409

flag

karta · 18-Июл-18 21:26 (спустя 5 дней)

+ 2
Dum spiro, spero

karta

Moderator

Стаж: 4 года 7 месяцев

Сообщений: 3409

flag

karta · 01-Авг-18 22:28 (спустя 14 дней)

+ 4
Dum spiro, spero

fintilo

Стаж: 4 года 8 месяцев

Сообщений: 1

flag

fintilo · 05-Авг-18 14:48 (спустя 3 дня)

Добавьте пожалуйста русские субтитры

karta

Moderator

Стаж: 4 года 7 месяцев

Сообщений: 3409

flag

karta · 10-Авг-18 12:22 (спустя 4 дня)

+ 5
Dum spiro, spero

karta

Moderator

Стаж: 4 года 7 месяцев

Сообщений: 3409

flag

karta · 17-Авг-18 11:21 (спустя 6 дней)

+ 6
Dum spiro, spero

karta

Moderator

Стаж: 4 года 7 месяцев

Сообщений: 3409

flag

karta · 23-Авг-18 19:10 (спустя 6 дней)

+ 7
Dum spiro, spero

bot · 29-Авг-18 21:37 (спустя 6 дней)

Тема была перенесена из форума Новинки и сериалы в стадии показа в форум Сериалы США и Канады
Wentworth_Miller
 

Luna2706

Стаж: 8 лет 8 месяцев

Сообщений: 218

flag

Luna2706 · 30-Авг-18 18:14 (спустя 6 дней)

И очень хорошо, большие молодцы, что не стали размазывать второй сезон... прекрасный сериал с очень напряженной концовкой... особенно, если не читал книгу...
Если сказала, что не брала - значит не отдам.

Wentworth_Miller

Помощник модератора

Стаж: 9 лет 6 месяцев

Сообщений: 5035

flag

Wentworth_Miller · 30-Авг-18 23:00 (спустя 4 часа)

http://SKYTRACKER.XYZ/viewtopic.php?t=5587025
Исправили раздачу - напишите ЛС, указав ссылку на релиз.

bot · 04-Сен-18 12:54 (спустя 4 дня)

Тема была перенесена из форума Сериалы США и Канады в форум Архив (Зарубежные сериалы)
Celta88
 
 
All rights reserved © 2017-2018
Loading...
Error